Ergebnis 1 bis 2 von 2

Thema: Record of Lodoss War OVA [Ger-Jap-Eng-Dub][Ger-Eng-Sub][720][1080p][Bluray]-Li0N

Dieser Thread wurde durchschnittlich mit 5 Sternen bewertet, wobei 1 Stern die schlechteste und 5 Sterne die beste Bewertung ist. Es haben insgesamt 1 Mitglieder eine Bewertung abgegeben.

  1. #1
    Elite Avatar von Zetsu
    Registriert seit
    May 2013
    Beiträge
    685
    Punkte
    69.455
    Errungenschaften:
    TomodachisKapitänTagger Profi50000 ErfahrungspunkteHikikomori

    Record of Lodoss War OVA [Ger-Jap-Eng-Dub][Ger-Eng-Sub][720][1080p][Bluray]-Li0N



    Lodoss Tou Senki
    ロードス島戦記
    Record of Lodoss War OVA
    Record of Lodoss War






    Kurzbeschreibung
    Vor tausenden Jahren kämpfte die Göttin des Lichts gegen die Göttin der Finsternis, bis beide in ewigen Schlaf sanken. Seit dieser Zeit ist die Insel Lodoss ein verfluchter Ort. Nun ist der dunkle Imperator Beld von Marmo mit einem riesigen Dämonenheer aufgebrochen, um Lodoss seiner Macht zu unterwerfen. Die Könige von Lodoss müssen alle Kräfte vereinen, wenn sie diesen Krieg gewinnen wollen. Sechs Gefährten – eine Elfe, einen Zwerg, einen Magier, einen Priester, einen Dieb und den Jungen Parn, dessen sehnlichster Wunsch es ist, ein Ritter zu werden – schicken die Könige zu dem weisen Zauberer Wort. Sie sollen herausfinden, wer die grausame Hexe ist, die sich mit Beld verbündet hat.

    ✰ Spieldauer pro Folge: 24 Min. ✰
    ✰ Episodenanzahl: 13/13 ✰
    ✰ Source: BluRay ✰
    ✰ Format: mkv ✰
    ✰ Video-Codec: x264 ✰
    ✰ Resolution: 960 x 720, 1440 x 1080 ✰
    ✰ Sprache: Deutsch Japanisch Englisch ✰
    ✰ Untertitel: Deutsch Englisch ✰
    ✰ Größe pro Folge: 800MB (720p), 1500MB (1080p) ✰
    ✰ Releaser: Li0N ✰
    ✰ Hoster: Share-Online Uploaded ✰


    Details
    Spoiler

    720p
    Spoiler

    PHP-Code:
    General           Record.of.Lodoss.War.OVA.01.[GerJapEngDub][GerEngSub][720p][Bluray]-Li0N
    Format            
    Matroska at 5 802 Kbps
    Length            
    1 018 MiB for 24min 31s 488ms

    Video 
    #0          : 
    Format            AVC 8 bits at 4 567 Kbps
    Aspect            
    1280 x 960 (1.333at 23.976 fps
    Streamsize        
    801 MiB (79%)

    Audio #0          : Deutsch AC3 5.1
    Format            AC-3 at 448 Kbps
    Infos             
    6 Kanäle48,0 KHz
    Language          
    Deutsch
    Streamsize        
    78,6 MiB (8%)

    Audio #1          : Japanisch AC3 2.0
    Format            AC-3 at 448 Kbps
    Infos             
    2 Kanäle48,0 KHz
    Language          
    Japanisch
    Streamsize        
    78,6 MiB (8%)

    Audio #2          : Englisch AC3 2.0
    Format            AC-3 at 224 Kbps
    Infos             
    2 Kanäle48,0 KHz
    Language          
    Englisch
    Streamsize        
    39,3 MiB (4%)

    Text #0           : Deutsch Forced [ASS][gerdhanse]
    Format            ASS
    Language          
    Deutsch

    Text 
    #1           : Deutsch Full [ASS][gerdhanse]
    Format            ASS
    Language          
    Deutsch

    Text 
    #2           : Deutsch Full [ASS]
    Format            ASS
    Language          
    Deutsch

    Text 
    #3           : Englisch Forced [SRT]
    Format            UTF-8
    Language          
    Englisch

    Text 
    #4           : Englisch Full [SRT]
    Format            UTF-8
    Language          
    Englisch

    Text 
    #5           : Englisch Full [ASS][H72]
    Format            ASS
    Language          
    Englisch

    Text 
    #6           : Englisch Forced [VOB]
    Format            VobSub
    Language          
    Englisch

    Text 
    #7           : Englisch Full [VOB]
    Format            VobSub
    Language          
    Englisch

    Text 
    #8           : Deutsch Full [SRT]
    Format            UTF-8
    Language          
    Deutsch

    Text 
    #9           : Deutsch Full [VOB]
    Format            VobSub
    Language          
    Deutsch 
    1080p
    Spoiler

    PHP-Code:
    General           Record.of.Lodoss.War.OVA.01.[GerJapEngDub][GerEngSub][1080p][Bluray]-Li0N
    Format            
    Matroska at 10,6 Mbps
    Length            
    1,81 GiB for 24min 31s 488ms

    Video 
    #0          : 
    Format            AVC 8 bits at 9 224 Kbps
    Aspect            
    1440 x 1080 (1.333at 23.976 fps
    Streamsize        
    1,58 GiB (87%)

    Audio #0          : Deutsch AC3 5.1
    Format            AC-3 at 448 Kbps
    Infos             
    6 Kanäle48,0 KHz
    Language          
    Deutsch
    Streamsize        
    78,6 MiB (4%)

    Audio #1          : Japanisch AC3 2.0
    Format            AC-3 at 448 Kbps
    Infos             
    2 Kanäle48,0 KHz
    Language          
    Japanisch
    Streamsize        
    78,6 MiB (4%)

    Audio #2          : Englisch AC3 2.0
    Format            AC-3 at 224 Kbps
    Infos             
    2 Kanäle48,0 KHz
    Language          
    Englisch
    Streamsize        
    39,3 MiB (2%)

    Text #0           : Deutsch Forced [ASS][gerdhanse]
    Format            ASS
    Language          
    Deutsch

    Text 
    #1           : Deutsch Full [ASS][gerdhanse]
    Format            ASS
    Language          
    Deutsch

    Text 
    #2           : Deutsch Full [ASS]
    Format            ASS
    Language          
    Deutsch

    Text 
    #3           : Englisch Forced [SRT]
    Format            UTF-8
    Language          
    Englisch

    Text 
    #4           : Englisch Full [SRT]
    Format            UTF-8
    Language          
    Englisch

    Text 
    #5           : Englisch Full [ASS][H72]
    Format            ASS
    Language          
    Englisch

    Text 
    #6           : Englisch Forced [VOB]
    Format            VobSub
    Language          
    Englisch

    Text 
    #7           : Englisch Full [VOB]
    Format            VobSub
    Language          
    Englisch

    Text 
    #8           : Deutsch Full [SRT]
    Format            UTF-8
    Language          
    Deutsch

    Text 
    #9           : Deutsch Full [VOB]
    Format            VobSub
    Language          
    Deutsch 


    Geschützter Bereich - Bedanke dich beim Poster, um den Bereich sehen zu können
    Hier erfährst Du wie Du Dich bedanken kannst oder werde jetzt Premium Mitglied ab einer Spende von 5€ und erhalte sofortigen Zugriff auf den Downloadbereich!


    Geändert von Zetsu (8. August 2014 um 16:25 Uhr)
    Inaktiver Uploader!

    Alle Re-Upload-Anfragen öffentlich im [Links sind nur für registrierte und aktivierte Nutzer sichtbar. Klicke hier um dich zu registrieren.] posten!

  2. 158 Benutzer sagen Danke:

    Anzeigen

    1234Ace1234 (18. May 2016),1Ranger (19. March 2016),Acreen (7. December 2015),Akio (16. August 2015),Akulti (6. December 2014),Amedala (23. March 2014),Anathos (27. December 2014),Anatoools_inactive (30. April 2014),animefan84 (10. November 2014),Astay (19. September 2015),Asuka Langley (10. April 2016),Atmozfear (12. September 2015),badx (15. February 2015),Baschti1989 (4. August 2016),BigBen (10. November 2014),Blackdragon1702 (11. November 2015),blitzman1977 (11. April 2016),bloodyfloh (25. July 2015),boemb80_inactive (22. February 2014),Bombur (28. January 2014),bonsai (12. May 2016),Buddha (30. October 2014),Clackieline_inactive (21. April 2015),Cyberdyne (10. May 2015),dave_christoph (22. January 2014),derrettich (16. April 2014),Dester007 (8. January 2015),Dexter121 (6. April 2015),diablofan2 (10. December 2013),donma (3. December 2016),doppelteglasur (15. February 2015),Draagul (27. May 2014),dreambird1973 (11. March 2015),Dreieckhard (6. December 2014),EngelEatos (7. April 2016),eRKa (28. January 2015),esper (23. June 2014),farmerjoe (28. June 2014),FIRST--LAW--FANTASY (20. March 2014),Flyer (10. December 2013),freakwatcher (3. July 2014),galudo (14. January 2016),gerdhanse (12. December 2013),Ghostraven (5. October 2015),Girugamesh (15. August 2014),Gorbatschow (8. December 2015),Grave Baker (17. December 2014),Griever (3. January 2016),Hawkfeder (6. May 2016),heikobaer (24. December 2013),HellSPawn91 (10. January 2014),hyper (14. February 2015),icarium90_inactive (10. September 2014),illyria87_inactive (2. September 2015),imnuan (26. May 2016),Infi (20. January 2014),Jeycop (2. October 2016),Jinnay (16. February 2014),Jisagi (7. April 2016),JoleenLovesMina (14. April 2014),Juser (7. September 2015),Kaito_O (12. February 2014),Kaktusmensch (17. September 2015),KeepPrivat (23. January 2014),kei (28. January 2015),Keniji (7. August 2014),kenshin057 (11. November 2014),knanime (14. August 2014),Kortest (1. January 2015),krausi22 (11. January 2015),kreamwon (7. December 2014),lalali (12. June 2015),Laserstrahl (3. November 2015),LawrenceKraft (27. July 2015),Leetroll (23. July 2014),LOGAN13 (12. October 2014),LordMecha (30. November 2016),LUCASINO (3. November 2014),Maggotcarrier (5. March 2015),Magikarp (22. November 2016),Manelig (16. September 2014),Matzehansa (23. July 2015),maxmus12 (5. March 2015),Mendason (3. May 2015),MetalObi (6. January 2015),midnighter (11. August 2014),miezbert (12. July 2014),minimalistix (9. December 2013),Mr.Shit (6. January 2016),n0b0dy (15. June 2015),nabou (5. January 2014),NanaNo7 (4. July 2015),neMesis.be (11. November 2015),NemoNobody (7. November 2015),NirvanaAngel (19. December 2013),nuggl (16. December 2015),ohlong (30. September 2014),Okarin (21. March 2015),oOeLOo (11. November 2014),Over (26. June 2015),Paulus (21. December 2014),peter18 (1. March 2014),phantyser (11. February 2015),Pito (18. March 2014),Piwi (7. December 2014),Poocky (20. December 2015),Porco (14. April 2016),prinzvegeta (21. June 2015),qenda (18. May 2015),qooosy (25. December 2013),Raven (31. January 2014),Raziel (26. July 2014),Repcak (4. May 2016),Retro (29. January 2014),Revard (5. February 2015),Ronae (24. January 2014),rudizone (21. November 2014),Ryuichiro (27. September 2015),saabwx (23. March 2015),saarx (15. May 2016),SaberNight (16. March 2015),Saiakou (21. January 2016),Savius (29. January 2016),Seishin (17. May 2015),Shentienlung_inactive (30. August 2014),SIDioZ (10. September 2014),SilverSurferGT.de (22. January 2015),Snake_at_web (19. January 2015),SnowCat (14. December 2013),starforce (14. December 2014),stonie2oo4 (12. October 2014),Subroutine (6. March 2016),sunfun16 (30. July 2014),supachi_inactive (17. June 2015),Tarlysin (12. January 2015),Tenma90 (9. May 2015),Terraner (16. March 2016),TheSimpleJack (18. March 2014),The_Iron (14. December 2013),tigerhai (17. December 2014),tmcx (30. April 2015),Tsukihime (2. January 2014),Tycos (10. December 2013),Type-0 (18. December 2013),Tzi (7. November 2014),VatosLocos (1. September 2015),Virgel (6. October 2015),volker027 (11. April 2016),wammbo_inactive (17. May 2015),WegFleXXer (14. February 2014),Wides (28. December 2014),Wor Mac (7. January 2014),xaxoxix (24. February 2015),XRA9 (8. March 2014),Yoshi1982 (25. July 2015),Zaisen (10. December 2013),zamza21 (23. January 2014)

  3. #2
    United we Stand Avatar von 00Ryuji00
    Registriert seit
    Oct 2012
    Beiträge
    3.902
    Punkte
    99.938
    Errungenschaften:
    TomodachisGang LeaderHikikomoriTagger Amateur50000 Erfahrungspunkte

    AW: Record of Lodoss War OVA [Ger-Jap-Eng-Dub][Ger-Eng-Sub][720][1080p][Bluray]-Li0N


    Lodoss Tou Senki
    ロードス島戦記
    Record of Lodoss War OVA
    Record of Lodoss War






    Kurzbeschreibung:
    Zitat Zitat von AniSearch.com
    Vor tausenden Jahren kämpfte die Göttin des Lichts gegen die Göttin der Finsternis, bis beide in ewigen Schlaf sanken. Seit dieser Zeit ist die Insel Lodoss ein verfluchter Ort. Nun ist der dunkle Imperator Beld von Marmo mit einem riesigen Dämonenheer aufgebrochen, um Lodoss seiner Macht zu unterwerfen. Die Könige von Lodoss müssen alle Kräfte vereinen, wenn sie diesen Krieg gewinnen wollen. Sechs Gefährten – eine Elfe, einen Zwerg, einen Magier, einen Priester, einen Dieb und den Jungen Parn, dessen sehnlichster Wunsch es ist, ein Ritter zu werden – schicken die Könige zu dem weisen Zauberer Wort. Sie sollen herausfinden, wer die grausame Hexe ist, die sich mit Beld verbündet hat.


    Spieldauer: 25min
    Genre: Abenteuer
    Nebengenres: Abenteuer, Action, Drama, Fantasy
    Jahr: 1990
    Sprache: Deutsch, Englisch, Japanisch
    Untertitel: Deutsch, Englisch
    Größe pro Folge: ~1 018 MiB ~1.81 GiB
    Episodenanzahl: 13 /13
    Format: MKV
    Auflösung: 960p (4:3), 1080p (4:3)
    Videocodec: x264 (AVC)
    Audiocodec: AC-3
    Releasegruppe: Li0N
    Hoster: Share-Online, Uploaded


    MediaInfo
    720p
    Code:
    
    Format                                   : Matroska
    Format version                           : Version 2
    File size                                : 1 018 MiB
    Duration                                 : 24mn 31s
    Overall bit rate                         : 5 802 Kbps
    Encoded date                             : UTC 2013-12-20 18:19:12
    Writing application                      : mkvmerge v5.6.0 ('Kenya Kane') built on May 27 2012 16:44:04
    Writing library                          : libebml v1.2.3 + libmatroska v1.3.0
    Attachements                             : FTLTLT.TTF / laurencb.ttf / LCALLIG.TTF / PRISTINA.TTF / CORBEL.TTF / mentone-semibol.otf / OptimaLT-DemiBold.ttf / BRLNSDB.TTF / BRLNSR.TTF / BRLNSB.TTF
    
    Video
    ID                                       : 1
    Format                                   : AVC
    Format/Info                              : Advanced Video Codec
    Format profile                           : [email protected]
    Format settings, CABAC                   : Yes
    Format settings, ReFrames                : 6 frames
    Muxing mode                              : Header stripping
    Codec ID                                 : V_MPEG4/ISO/AVC
    Duration                                 : 24mn 31s
    Bit rate                                 : 4 567 Kbps
    Width                                    : 1 280 pixels
    Height                                   : 960 pixels
    Display aspect ratio                     : 4:3
    Frame rate mode                          : Constant
    Frame rate                               : 23.976 fps
    Color space                              : YUV
    Chroma subsampling                       : 4:2:0
    Bit depth                                : 8 bits
    Scan type                                : Progressive
    Bits/(Pixel*Frame)                       : 0.155
    Stream size                              : 801 MiB (79%)
    Writing library                          : x264 core 138 r2358 9e941d1
    Encoding settings                        : cabac=1 / ref=6 / deblock=1:1:1 / analyse=0x3:0x133 / me=umh / subme=10 / psy=1 / psy_rd=0.40:0.00 / mixed_ref=1 / me_range=24 / chroma_me=1 / trellis=2 / 8x8dct=1 / cqm=0 / deadzone=21,11 / fast_pskip=1 / chroma_qp_offset=-2 / threads=9 / lookahead_threads=1 / sliced_threads=0 / nr=0 / decimate=1 / interlaced=0 / bluray_compat=0 / constrained_intra=0 / bframes=9 / b_pyramid=2 / b_adapt=2 / b_bias=0 / direct=3 / weightb=1 / open_gop=0 / weightp=2 / keyint=240 / keyint_min=23 / scenecut=40 / intra_refresh=0 / rc_lookahead=60 / rc=crf / mbtree=1 / crf=16.0 / qcomp=0.60 / qpmin=0 / qpmax=69 / qpstep=4 / ip_ratio=1.40 / aq=1:0.60
    Language                                 : English
    Default                                  : Yes
    Forced                                   : No
    
    Audio #1
    ID                                       : 2
    Format                                   : AC-3
    Format/Info                              : Audio Coding 3
    Mode extension                           : CM (complete main)
    Format settings, Endianness              : Big
    Muxing mode                              : Header stripping
    Codec ID                                 : A_AC3
    Duration                                 : 24mn 31s
    Bit rate mode                            : Constant
    Bit rate                                 : 448 Kbps
    Channel(s)                               : 6 channels
    Channel positions                        : Front: L C R, Side: L R, LFE
    Sampling rate                            : 48.0 KHz
    Compression mode                         : Lossy
    Delay relative to video                  : 1s 0ms
    Stream size                              : 78.6 MiB (8%)
    Title                                    : Deutsch AC3 5.1
    Language                                 : German
    Default                                  : Yes
    Forced                                   : No
    
    Audio #2
    ID                                       : 3
    Format                                   : AC-3
    Format/Info                              : Audio Coding 3
    Mode extension                           : CM (complete main)
    Format settings, Endianness              : Big
    Muxing mode                              : Header stripping
    Codec ID                                 : A_AC3
    Duration                                 : 24mn 31s
    Bit rate mode                            : Constant
    Bit rate                                 : 448 Kbps
    Channel(s)                               : 2 channels
    Channel positions                        : Front: L R
    Sampling rate                            : 48.0 KHz
    Compression mode                         : Lossy
    Stream size                              : 78.6 MiB (8%)
    Title                                    : Japanisch AC3 2.0
    Language                                 : Japanese
    Default                                  : No
    Forced                                   : No
    
    Audio #3
    ID                                       : 4
    Format                                   : AC-3
    Format/Info                              : Audio Coding 3
    Mode extension                           : CM (complete main)
    Format settings, Endianness              : Big
    Muxing mode                              : Header stripping
    Codec ID                                 : A_AC3
    Duration                                 : 24mn 31s
    Bit rate mode                            : Constant
    Bit rate                                 : 224 Kbps
    Channel(s)                               : 2 channels
    Channel positions                        : Front: L R
    Sampling rate                            : 48.0 KHz
    Compression mode                         : Lossy
    Delay relative to video                  : 1s 0ms
    Stream size                              : 39.3 MiB (4%)
    Title                                    : Englisch AC3 2.0
    Language                                 : English
    Default                                  : No
    Forced                                   : No
    
    Text #1
    ID                                       : 5
    Format                                   : ASS
    Codec ID                                 : S_TEXT/ASS
    Codec ID/Info                            : Advanced Sub Station Alpha
    Compression mode                         : Lossless
    Title                                    : Deutsch Forced [ASS][gerdhanse]
    Language                                 : German
    Default                                  : Yes
    Forced                                   : No
    
    Text #2
    ID                                       : 6
    Format                                   : ASS
    Codec ID                                 : S_TEXT/ASS
    Codec ID/Info                            : Advanced Sub Station Alpha
    Compression mode                         : Lossless
    Title                                    : Deutsch Full [ASS][gerdhanse]
    Language                                 : German
    Default                                  : No
    Forced                                   : No
    
    Text #3
    ID                                       : 7
    Format                                   : ASS
    Codec ID                                 : S_TEXT/ASS
    Codec ID/Info                            : Advanced Sub Station Alpha
    Compression mode                         : Lossless
    Title                                    : Deutsch Full [ASS]
    Language                                 : German
    Default                                  : No
    Forced                                   : No
    
    Text #4
    ID                                       : 8
    Format                                   : UTF-8
    Codec ID                                 : S_TEXT/UTF8
    Codec ID/Info                            : UTF-8 Plain Text
    Title                                    : Englisch Forced [SRT]
    Language                                 : English
    Default                                  : No
    Forced                                   : No
    
    Text #5
    ID                                       : 9
    Format                                   : UTF-8
    Codec ID                                 : S_TEXT/UTF8
    Codec ID/Info                            : UTF-8 Plain Text
    Title                                    : Englisch Full [SRT]
    Language                                 : English
    Default                                  : No
    Forced                                   : No
    
    Text #6
    ID                                       : 10
    Format                                   : ASS
    Codec ID                                 : S_TEXT/ASS
    Codec ID/Info                            : Advanced Sub Station Alpha
    Compression mode                         : Lossless
    Title                                    : Englisch Full [ASS][H72]
    Language                                 : English
    Default                                  : No
    Forced                                   : No
    
    Text #7
    ID                                       : 11
    Format                                   : VobSub
    Muxing mode                              : zlib
    Codec ID                                 : S_VOBSUB
    Codec ID/Info                            : Picture based subtitle format used on DVDs
    Title                                    : Englisch Forced [VOB]
    Language                                 : English
    Default                                  : No
    Forced                                   : No
    
    Text #8
    ID                                       : 12
    Format                                   : VobSub
    Muxing mode                              : zlib
    Codec ID                                 : S_VOBSUB
    Codec ID/Info                            : Picture based subtitle format used on DVDs
    Title                                    : Englisch Full [VOB]
    Language                                 : English
    Default                                  : No
    Forced                                   : No
    
    Text #9
    ID                                       : 13
    Format                                   : UTF-8
    Codec ID                                 : S_TEXT/UTF8
    Codec ID/Info                            : UTF-8 Plain Text
    Title                                    : Deutsch Full [SRT]
    Language                                 : German
    Default                                  : No
    Forced                                   : No
    
    Text #10
    ID                                       : 14
    Format                                   : VobSub
    Muxing mode                              : zlib
    Codec ID                                 : S_VOBSUB
    Codec ID/Info                            : Picture based subtitle format used on DVDs
    Title                                    : Deutsch Full [VOB]
    Language                                 : German
    Default                                  : No
    Forced                                   : No
    
    


    1080p
    Code:
    
    Format                                   : Matroska
    Format version                           : Version 2
    File size                                : 1.81 GiB
    Duration                                 : 24mn 31s
    Overall bit rate                         : 10.6 Mbps
    Encoded date                             : UTC 2013-12-20 18:38:36
    Writing application                      : mkvmerge v5.6.0 ('Kenya Kane') built on May 27 2012 16:44:04
    Writing library                          : libebml v1.2.3 + libmatroska v1.3.0
    Attachements                             : FTLTLT.TTF / laurencb.ttf / LCALLIG.TTF / PRISTINA.TTF / CORBEL.TTF / mentone-semibol.otf / OptimaLT-DemiBold.ttf / BRLNSDB.TTF / BRLNSR.TTF / BRLNSB.TTF
    
    Video
    ID                                       : 1
    Format                                   : AVC
    Format/Info                              : Advanced Video Codec
    Format profile                           : [email protected]
    Format settings, CABAC                   : Yes
    Format settings, ReFrames                : 4 frames
    Muxing mode                              : Header stripping
    Codec ID                                 : V_MPEG4/ISO/AVC
    Duration                                 : 24mn 31s
    Bit rate                                 : 9 224 Kbps
    Width                                    : 1 440 pixels
    Height                                   : 1 080 pixels
    Display aspect ratio                     : 4:3
    Frame rate mode                          : Constant
    Frame rate                               : 23.976 fps
    Color space                              : YUV
    Chroma subsampling                       : 4:2:0
    Bit depth                                : 8 bits
    Scan type                                : Progressive
    Bits/(Pixel*Frame)                       : 0.247
    Stream size                              : 1.58 GiB (87%)
    Writing library                          : x264 core 116 r2074 2641b9e
    Encoding settings                        : cabac=1 / ref=4 / deblock=1:1:1 / analyse=0x3:0x133 / me=umh / subme=10 / psy=1 / psy_rd=0.40:0.00 / mixed_ref=1 / me_range=24 / chroma_me=1 / trellis=2 / 8x8dct=1 / cqm=0 / deadzone=21,11 / fast_pskip=1 / chroma_qp_offset=-2 / threads=9 / sliced_threads=0 / nr=0 / decimate=1 / interlaced=0 / bluray_compat=0 / constrained_intra=0 / bframes=9 / b_pyramid=2 / b_adapt=2 / b_bias=0 / direct=3 / weightb=1 / open_gop=0 / weightp=2 / keyint=250 / keyint_min=23 / scenecut=40 / intra_refresh=0 / rc_lookahead=60 / rc=crf / mbtree=1 / crf=14.0 / qcomp=0.60 / qpmin=0 / qpmax=69 / qpstep=4 / ip_ratio=1.40 / aq=1:0.60
    Language                                 : English
    Default                                  : Yes
    Forced                                   : No
    
    Audio #1
    ID                                       : 2
    Format                                   : AC-3
    Format/Info                              : Audio Coding 3
    Mode extension                           : CM (complete main)
    Format settings, Endianness              : Big
    Muxing mode                              : Header stripping
    Codec ID                                 : A_AC3
    Duration                                 : 24mn 31s
    Bit rate mode                            : Constant
    Bit rate                                 : 448 Kbps
    Channel(s)                               : 6 channels
    Channel positions                        : Front: L C R, Side: L R, LFE
    Sampling rate                            : 48.0 KHz
    Compression mode                         : Lossy
    Delay relative to video                  : 1s 0ms
    Stream size                              : 78.6 MiB (4%)
    Title                                    : Deutsch AC3 5.1
    Language                                 : German
    Default                                  : Yes
    Forced                                   : No
    
    Audio #2
    ID                                       : 3
    Format                                   : AC-3
    Format/Info                              : Audio Coding 3
    Mode extension                           : CM (complete main)
    Format settings, Endianness              : Big
    Muxing mode                              : Header stripping
    Codec ID                                 : A_AC3
    Duration                                 : 24mn 31s
    Bit rate mode                            : Constant
    Bit rate                                 : 448 Kbps
    Channel(s)                               : 2 channels
    Channel positions                        : Front: L R
    Sampling rate                            : 48.0 KHz
    Compression mode                         : Lossy
    Stream size                              : 78.6 MiB (4%)
    Title                                    : Japanisch AC3 2.0
    Language                                 : Japanese
    Default                                  : No
    Forced                                   : No
    
    Audio #3
    ID                                       : 4
    Format                                   : AC-3
    Format/Info                              : Audio Coding 3
    Mode extension                           : CM (complete main)
    Format settings, Endianness              : Big
    Muxing mode                              : Header stripping
    Codec ID                                 : A_AC3
    Duration                                 : 24mn 31s
    Bit rate mode                            : Constant
    Bit rate                                 : 224 Kbps
    Channel(s)                               : 2 channels
    Channel positions                        : Front: L R
    Sampling rate                            : 48.0 KHz
    Compression mode                         : Lossy
    Delay relative to video                  : 1s 0ms
    Stream size                              : 39.3 MiB (2%)
    Title                                    : Englisch AC3 2.0
    Language                                 : English
    Default                                  : No
    Forced                                   : No
    
    Text #1
    ID                                       : 5
    Format                                   : ASS
    Codec ID                                 : S_TEXT/ASS
    Codec ID/Info                            : Advanced Sub Station Alpha
    Compression mode                         : Lossless
    Title                                    : Deutsch Forced [ASS][gerdhanse]
    Language                                 : German
    Default                                  : Yes
    Forced                                   : Yes
    
    Text #2
    ID                                       : 6
    Format                                   : ASS
    Codec ID                                 : S_TEXT/ASS
    Codec ID/Info                            : Advanced Sub Station Alpha
    Compression mode                         : Lossless
    Title                                    : Deutsch Full [ASS][gerdhanse]
    Language                                 : German
    Default                                  : No
    Forced                                   : No
    
    Text #3
    ID                                       : 7
    Format                                   : ASS
    Codec ID                                 : S_TEXT/ASS
    Codec ID/Info                            : Advanced Sub Station Alpha
    Compression mode                         : Lossless
    Title                                    : Deutsch Full [ASS]
    Language                                 : German
    Default                                  : No
    Forced                                   : No
    
    Text #4
    ID                                       : 8
    Format                                   : UTF-8
    Codec ID                                 : S_TEXT/UTF8
    Codec ID/Info                            : UTF-8 Plain Text
    Title                                    : Englisch Forced [SRT]
    Language                                 : English
    Default                                  : No
    Forced                                   : No
    
    Text #5
    ID                                       : 9
    Format                                   : UTF-8
    Codec ID                                 : S_TEXT/UTF8
    Codec ID/Info                            : UTF-8 Plain Text
    Title                                    : Englisch Full [SRT]
    Language                                 : English
    Default                                  : No
    Forced                                   : No
    
    Text #6
    ID                                       : 10
    Format                                   : ASS
    Codec ID                                 : S_TEXT/ASS
    Codec ID/Info                            : Advanced Sub Station Alpha
    Compression mode                         : Lossless
    Title                                    : Englisch Full [ASS][H72]
    Language                                 : English
    Default                                  : No
    Forced                                   : No
    
    Text #7
    ID                                       : 11
    Format                                   : VobSub
    Muxing mode                              : zlib
    Codec ID                                 : S_VOBSUB
    Codec ID/Info                            : Picture based subtitle format used on DVDs
    Title                                    : Englisch Forced [VOB]
    Language                                 : English
    Default                                  : No
    Forced                                   : No
    
    Text #8
    ID                                       : 12
    Format                                   : VobSub
    Muxing mode                              : zlib
    Codec ID                                 : S_VOBSUB
    Codec ID/Info                            : Picture based subtitle format used on DVDs
    Title                                    : Englisch Full [VOB]
    Language                                 : English
    Default                                  : No
    Forced                                   : No
    
    Text #9
    ID                                       : 13
    Format                                   : UTF-8
    Codec ID                                 : S_TEXT/UTF8
    Codec ID/Info                            : UTF-8 Plain Text
    Title                                    : Deutsch Full [SRT]
    Language                                 : German
    Default                                  : No
    Forced                                   : No
    
    Text #10
    ID                                       : 14
    Format                                   : VobSub
    Muxing mode                              : zlib
    Codec ID                                 : S_VOBSUB
    Codec ID/Info                            : Picture based subtitle format used on DVDs
    Title                                    : Deutsch Full [VOB]
    Language                                 : German
    Default                                  : No
    Forced                                   : No
    
    






    Geschützter Bereich - Bedanke dich beim Poster, um den Bereich sehen zu können
    Hier erfährst Du wie Du Dich bedanken kannst oder werde jetzt Premium Mitglied ab einer Spende von 5€ und erhalte sofortigen Zugriff auf den Downloadbereich!

    [Links sind nur für registrierte und aktivierte Nutzer sichtbar. Klicke hier um dich zu registrieren.]
    !!!Alle Anliegen bezüglich Uploads werden nur mit direktem Threadlink zum Angebot bearbeitet!!!

    Re-Uploadanfragen nur per PN - Ihr könnt mir auch Listen schicken

    Re-Uploads erfolgen meist innerhalb 24h, kann aber auch bis zu 7 Tage dauern

    [Links sind nur für registrierte und aktivierte Nutzer sichtbar. Klicke hier um dich zu registrieren.] | [Links sind nur für registrierte und aktivierte Nutzer sichtbar. Klicke hier um dich zu registrieren.] | >[Links sind nur für registrierte und aktivierte Nutzer sichtbar. Klicke hier um dich zu registrieren.]<
    [Links sind nur für registrierte und aktivierte Nutzer sichtbar. Klicke hier um dich zu registrieren.]

  4. 20 Benutzer sagen Danke:

    Amnesia420 (23. April 2016),Asuka Langley (11. April 2016),Baschti1989 (4. August 2016),blitzman1977 (11. April 2016),chopper23 (11. April 2016),Conopas (7. May 2016),Cy_Baer (11. April 2016),darkangel92 (27. April 2016),donma (3. December 2016),Hawkfeder (6. May 2016),heikobaer (11. April 2016),Invader_Zim (11. April 2016),Jeycop (2. October 2016),LordMecha (14. May 2016),Magikarp (22. November 2016),mpbia (11. April 2016),Mr.Shit (21. April 2016),Porco (14. April 2016),san1n (7. May 2016),Savius (24. April 2016)

Lesezeichen

Berechtigungen

  • Neue Themen erstellen: Nein
  • Themen beantworten: Nein
  • Anhänge hochladen: Nein
  • Beiträge bearbeiten: Nein
  •  

1 2 3 4 5 6 7 8 9 10 11 12 13 14 15 16 17 18 19 20 21 22 23 24 25 26 27 28 29 30 31 32 33 34 35 36 37 38 39 40 41 42 43 44 45 46 47 48 49 50 51 52 53 54 55 56 57 58 59 60 61 62 63 64 65 66 67 68 69 70 71 72 73 74 75 76 77 78 79 80 81 82 83 84 85 86 87 88 89 90 91 92 93 94 95 96 97 98 99 100 101 102 103 104 105 106 107 108 109 110 111 112 113 114 115 116 117 118 119 120 121 122 123 124 125 126 127 128 129 130 131 132 133 134 135 136 137 138 139 140 141 142 143 144 145 146 147 148 149 150 151 152 153 154 155 156 157 158