Ergebnis 1 bis 2 von 2

Thema: Scrapped Princess GerJapDub GerSub 720p Hi10 BluRay x264 - wozzy

Dieser Thread wurde noch nicht bewertet. Bewerte ihn doch, wenn er dir gefällt!
  1. #1
    High Quality Anime Avatar von Uploading123
    Registriert seit
    Mar 2013
    Beiträge
    1.009
    Punkte
    44.135
    Errungenschaften:
    TomodachisTagger Amateur25000 ErfahrungspunkteHikikomoriKapitän

    Scrapped Princess GerJapDub GerSub 720p Hi10 BluRay x264 - wozzy


    Scrapped.Princess.S01.COMPLETE.German.DL.720p.Hi10 .BluRay.x264-wozzy



    .:Beschreibung:.
    Fünfzehn Jahre ist es her, seit "Das Gift, welches die Welt vernichten wird", geboren wurde. Eine uralte Prophezeiung sagt nämlich voraus, dass Pacifica Casull an ihrem sechzehnten Geburtstag die Welt zerstören wird. Darum wurde sie als Baby in eine Schlucht geworfen, in der Hoffnung, das Eintreten der Prophezeiung dadurch zu verhindern. Wie durch ein Wunder überlebte Pacifica und wurde von einer Magierfamilie adoptiert.

    Nun, da ihr sechzehnter Geburtstag immer näher rückt, ist sie mit ihrem Stiefbruder Shannon - einem ausgezeichneten Schwertkämpfer - und ihrer Stiefschwester Raquel - die ausgeprägte magische Fähigkeiten besitzt - auf der Flucht. In einer Welt, in der die Kirche Mausers praktisch alle Fäden in der Hand hält, stößt das Trio immer wieder auf Feindseligkeit und Pacifica befindet sich ständig in Lebensgefahr. Trotzdem treffen die drei auch immer wieder auf freundliche Menschen, wie zum Beispiel den "Ritter" Leo, der sich kurzerhand in Pacifica verliebt. Zusammen versuchen sie ihrem Schicksal zu entkommen und gegen die bösen Mächte anzukämpfen.

    .:Info:.
    Größe: 13499.32 MB
    Laufzeit: 23 Min.
    Format: .mkv
    Video Stream: BD
    Video Codec: MPEG-4 H.264 / AVC
    Audio Stream: Dolby Digital 5.1
    Sprache/n: GER, JPN
    Genre: Anime

    .:NFO:.
    Spoiler
    Code:
    General
    Unique ID                                : 170631393789722015909578895614740261452 (0x805E693C39AF23AF8EEC05C95A13EA4C)
    Complete name                            : Scrapped.Princess.01.BD.720p.10bit.DL.FLAC.AC3-wozzy.mkv
    Format                                   : Matroska
    Format version                           : Version 4 / Version 2
    File size                                : 599 MiB
    Duration                                 : 22mn 49s
    Overall bit rate mode                    : Variable
    Overall bit rate                         : 3 672 Kbps
    Encoded date                             : UTC 2015-04-08 16:53:11
    Writing application                      : mkvmerge v7.4.0 ('Circles') 64bit built on Dec 12 2014 12:19:56
    Writing library                          : libebml v1.3.0 + libmatroska v1.4.1
    _STATISTICS_WRITING_APP                  : mkvmerge v7.4.0 ('Circles') 64bit built on Dec 12 2014 12:19:56
    _STATISTICS_WRITING_DATE_UTC             : 2015-04-08 16:53:11
    _STATISTICS_TAGS                         : BPS DURATION NUMBER_OF_FRAMES NUMBER_OF_BYTES
    DURATION                                 : 00:22:30.954000000
    NUMBER_OF_FRAMES                         : 263
    NUMBER_OF_BYTES                          : 466055
    
    Video
    ID                                       : 1
    Format                                   : AVC
    Format/Info                              : Advanced Video Codec
    Format profile                           : High [email protected]
    Format settings, CABAC                   : Yes
    Format settings, ReFrames                : 12 frames
    Codec ID                                 : V_MPEG4/ISO/AVC
    Duration                                 : 22mn 49s
    Width                                    : 960 pixels
    Height                                   : 720 pixels
    Display aspect ratio                     : 4:3
    Frame rate mode                          : Constant
    Frame rate                               : 23.976 fps
    Color space                              : YUV
    Chroma subsampling                       : 4:2:0
    Bit depth                                : 10 bits
    Scan type                                : Progressive
    Writing library                          : x264 core 146 r2538 121396c
    Encoding settings                        : cabac=1 / ref=12 / deblock=1:1:1 / analyse=0x3:0x133 / me=umh / subme=9 / psy=1 / psy_rd=1.00:0.00 / mixed_ref=1 / me_range=32 / chroma_me=1 / trellis=2 / 8x8dct=1 / cqm=0 / deadzone=21,11 / fast_pskip=1 / chroma_qp_offset=-2 / threads=6 / lookahead_threads=1 / sliced_threads=0 / nr=0 / decimate=1 / interlaced=0 / bluray_compat=0 / constrained_intra=0 / bframes=5 / b_pyramid=2 / b_adapt=2 / b_bias=0 / direct=3 / weightb=1 / open_gop=0 / weightp=2 / keyint=240 / keyint_min=23 / scenecut=40 / intra_refresh=0 / rc_lookahead=60 / rc=crf / mbtree=1 / crf=16.0 / qcomp=0.60 / qpmin=0 / qpmax=81 / qpstep=4 / vbv_maxrate=62500 / vbv_bufsize=78125 / crf_max=0.0 / nal_hrd=none / filler=0 / ip_ratio=1.40 / aq=1:0.60
    Default                                  : Yes
    Forced                                   : No
    
    Audio #1
    ID                                       : 2
    Format                                   : FLAC
    Format/Info                              : Free Lossless Audio Codec
    Codec ID                                 : A_FLAC
    Duration                                 : 22mn 49s
    Bit rate mode                            : Variable
    Channel(s)                               : 2 channels
    Sampling rate                            : 48.0 KHz
    Bit depth                                : 16 bits
    Writing library                          : Lavf56.1.100
    Language                                 : Japanese
    Default                                  : Yes
    Forced                                   : No
    
    Audio #2
    ID                                       : 3
    Format                                   : AC-3
    Format/Info                              : Audio Coding 3
    Mode extension                           : CM (complete main)
    Format settings, Endianness              : Big
    Codec ID                                 : A_AC3
    Duration                                 : 22mn 49s
    Bit rate mode                            : Constant
    Bit rate                                 : 448 Kbps
    Channel(s)                               : 6 channels
    Channel positions                        : Front: L C R, Side: L R, LFE
    Sampling rate                            : 48.0 KHz
    Bit depth                                : 16 bits
    Compression mode                         : Lossy
    Delay relative to video                  : 1s 0ms
    Stream size                              : 73.1 MiB (12%)
    Language                                 : German
    Default                                  : No
    Forced                                   : No
    
    Text
    ID                                       : 4
    Format                                   : VobSub
    Muxing mode                              : zlib
    Codec ID                                 : S_VOBSUB
    Codec ID/Info                            : The same subtitle format used on DVDs
    Language                                 : German
    Default                                  : No
    Forced                                   : No


    Mirrors kompatibel

    .:Uploaded.net:.
    Geschützter Bereich - Bedanke dich beim Poster, um den Bereich sehen zu können
    Hier erfährst Du wie Du Dich bedanken kannst oder werde jetzt Premium Mitglied ab einer Spende von 5€ und erhalte sofortigen Zugriff auf den Downloadbereich!

    .:Share-online.biz:.
    Geschützter Bereich - Bedanke dich beim Poster, um den Bereich sehen zu können
    Hier erfährst Du wie Du Dich bedanken kannst oder werde jetzt Premium Mitglied ab einer Spende von 5€ und erhalte sofortigen Zugriff auf den Downloadbereich!


  2. 59 Benutzer sagen Danke:

    Anzeigen

    AkaTenshi (25. August 2015),Androkai (4. July 2015),Asuka Langley (24. July 2015),beckiiyy1 (30. June 2015),Blackdragon1702 (18. October 2015),BlackDragon333 (24. September 2015),Blackgaara (30. June 2015),Ch1quita (19. May 2015),cloud-strife20 (7. November 2016),Conopas (18. April 2015),data_ghoul (1. November 2015),doublegf (24. April 2015),Drachengott (12. July 2015),Drazcan (10. May 2016),egon1212 (8. August 2015),eraz (21. November 2015),Filbo11 (20. July 2016),Flyer (15. April 2015),freakwatcher (1. July 2015),Griever (5. January 2016),haltdiefresse (18. September 2015),helloplaya (3. October 2016),Kaidasbiest (30. December 2015),Kaito_O (20. April 2015),Kaktusmensch (6. July 2015),Kinasix (15. April 2015),Kradus (2. July 2015),Kupan (18. October 2015),Leviathan42 (14. November 2016),lucky_mer (8. November 2015),manuel4193 (26. April 2015),midnighter (15. April 2015),Mitchell (16. June 2015),Mr.Shit (24. April 2015),nemo (29. June 2015),Neosix (11. May 2016),norby (30. June 2015),Paulus (30. June 2015),Physicaligraphy (25. April 2015),Rintarou Okabe (29. June 2015),Ruff (15. April 2015),Sandy7580 (10. April 2016),Scrappedmaster (15. January 2016),Seishin (17. May 2015),Shirou (20. April 2015),SilverSurferGT.de (14. July 2015),SnowCat (15. April 2015),Sodomizer (20. July 2015),SONNYxq (14. April 2015),Toad (31. July 2016),TrUnkO (1. July 2015),Tyrence (16. April 2015),Tzi (2. May 2015),VatosLocos (19. September 2015),videoseven (11. January 2016),WolfsBlade (15. April 2015),Xxchetahx (30. August 2016),Yukova (4. May 2015)

  3. #2
    United we Stand Avatar von 00Ryuji00
    Registriert seit
    Oct 2012
    Beiträge
    3.902
    Punkte
    100.092
    Errungenschaften:
    TomodachisGang LeaderHikikomoriTagger Amateur50000 Erfahrungspunkte

    AW: Scrapped Princess [Ger-Jap-Dub][Ger-Sub][720p-10Bit][BluRay]

    Scrapped Princess
    スクラップド・プリンセス
    Haiki Oujo



    Kurzbeschreibung:
    Fünfzehn Jahre ist es her, seit "Das Gift, welches die Welt vernichten wird", geboren wurde. Eine uralte Prophezeiung sagt nämlich voraus, dass Pacifica Casull an ihrem sechzehnten Geburtstag die Welt zerstören wird. Darum wurde sie als Baby in eine Schlucht geworfen, in der Hoffnung, das Eintreten der Prophezeiung dadurch zu verhindern. Wie durch ein Wunder überlebte Pacifica und wurde von einer Magierfamilie adoptiert.

    Nun, da ihr sechzehnter Geburtstag immer näher rückt, ist sie mit ihrem Stiefbruder Shannon - einem ausgezeichneten Schwertkämpfer - und ihrer Stiefschwester Raquel - die ausgeprägte magische Fähigkeiten besitzt - auf der Flucht. In einer Welt, in der die Kirche Mausers praktisch alle Fäden in der Hand hält, stößt das Trio immer wieder auf Feindseligkeit und Pacifica befindet sich ständig in Lebensgefahr. Trotzdem treffen die drei auch immer wieder auf freundliche Menschen, wie zum Beispiel den "Ritter" Leo, der sich kurzerhand in Pacifica verliebt. Zusammen versuchen sie ihrem Schicksal zu entkommen und gegen die bösen Mächte anzukämpfen.
    Sprache: Deutsch, Japanisch
    Untertitel: Deutsch
    Spieldauer: ~ 23min
    Größe: ~ 450-680MB
    Episodenanzahl: 24/24
    Format: .mkv
    Auflösung: 720p-10Bit (960x720, 4:3)
    Codec: x264, AC-3/FLAC
    Gruppe: wozzy
    Hoster: Uploaded, Share-Online

    Datei-Info.:
    Spoiler
    Code:
    Format                                   : Matroska
    Format version                           : Version 4 / Version 2
    File size                                : 599 MiB
    Duration                                 : 22mn 49s
    Overall bit rate mode                    : Variable
    Overall bit rate                         : 3 672 Kbps
    Encoded date                             : UTC 2015-04-08 16:53:11
    Writing application                      : mkvmerge v7.4.0 ('Circles') 64bit built on Dec 12 2014 12:19:56
    Writing library                          : libebml v1.3.0 + libmatroska v1.4.1
    _STATISTICS_WRITING_APP                  : mkvmerge v7.4.0 ('Circles') 64bit built on Dec 12 2014 12:19:56
    _STATISTICS_WRITING_DATE_UTC             : 2015-04-08 16:53:11
    _STATISTICS_TAGS                         : BPS DURATION NUMBER_OF_FRAMES NUMBER_OF_BYTES
    DURATION                                 : 00:22:30.954000000
    NUMBER_OF_FRAMES                         : 263
    NUMBER_OF_BYTES                          : 466055
    
    Video
    ID                                       : 1
    Format                                   : AVC
    Format/Info                              : Advanced Video Codec
    Format profile                           : High [email protected]
    Format settings, CABAC                   : Yes
    Format settings, ReFrames                : 12 frames
    Codec ID                                 : V_MPEG4/ISO/AVC
    Duration                                 : 22mn 49s
    Width                                    : 960 pixels
    Height                                   : 720 pixels
    Display aspect ratio                     : 4:3
    Frame rate mode                          : Constant
    Frame rate                               : 23.976 fps
    Color space                              : YUV
    Chroma subsampling                       : 4:2:0
    Bit depth                                : 10 bits
    Scan type                                : Progressive
    Writing library                          : x264 core 146 r2538 121396c
    Encoding settings                        : cabac=1 / ref=12 / deblock=1:1:1 / analyse=0x3:0x133 / me=umh / subme=9 / psy=1 / psy_rd=1.00:0.00 / mixed_ref=1 / me_range=32 / chroma_me=1 / trellis=2 / 8x8dct=1 / cqm=0 / deadzone=21,11 / fast_pskip=1 / chroma_qp_offset=-2 / threads=6 / lookahead_threads=1 / sliced_threads=0 / nr=0 / decimate=1 / interlaced=0 / bluray_compat=0 / constrained_intra=0 / bframes=5 / b_pyramid=2 / b_adapt=2 / b_bias=0 / direct=3 / weightb=1 / open_gop=0 / weightp=2 / keyint=240 / keyint_min=23 / scenecut=40 / intra_refresh=0 / rc_lookahead=60 / rc=crf / mbtree=1 / crf=16.0 / qcomp=0.60 / qpmin=0 / qpmax=81 / qpstep=4 / vbv_maxrate=62500 / vbv_bufsize=78125 / crf_max=0.0 / nal_hrd=none / filler=0 / ip_ratio=1.40 / aq=1:0.60
    Default                                  : Yes
    Forced                                   : No
    
    Audio #1
    ID                                       : 2
    Format                                   : FLAC
    Format/Info                              : Free Lossless Audio Codec
    Codec ID                                 : A_FLAC
    Duration                                 : 22mn 49s
    Bit rate mode                            : Variable
    Channel count                            : 2 channels
    Sampling rate                            : 48.0 KHz
    Bit depth                                : 16 bits
    Writing library                          : Lavf56.1.100
    Language                                 : Japanese
    Default                                  : Yes
    Forced                                   : No
    
    Audio #2
    ID                                       : 3
    Format                                   : AC-3
    Format/Info                              : Audio Coding 3
    Mode extension                           : CM (complete main)
    Format settings, Endianness              : Big
    Codec ID                                 : A_AC3
    Duration                                 : 22mn 49s
    Bit rate mode                            : Constant
    Bit rate                                 : 448 Kbps
    Channel count                            : 6 channels
    Channel positions                        : Front: L C R, Side: L R, LFE
    Sampling rate                            : 48.0 KHz
    Bit depth                                : 16 bits
    Compression mode                         : Lossy
    Delay relative to video                  : 1s 0ms
    Stream size                              : 73.1 MiB (12%)
    Language                                 : German
    Default                                  : No
    Forced                                   : No
    
    Text
    ID                                       : 4
    Format                                   : VobSub
    Muxing mode                              : zlib
    Codec ID                                 : S_VOBSUB
    Codec ID/Info                            : The same subtitle format used on DVDs
    Language                                 : German
    Default                                  : No
    Forced                                   : No
    


    Geschützter Bereich - Bedanke dich beim Poster, um den Bereich sehen zu können
    Hier erfährst Du wie Du Dich bedanken kannst oder werde jetzt Premium Mitglied ab einer Spende von 5€ und erhalte sofortigen Zugriff auf den Downloadbereich!
    !!!Alle Anliegen bezüglich Uploads werden nur mit direktem Threadlink zum Angebot bearbeitet!!!

    Re-Uploadanfragen nur per PN - Ihr könnt mir auch Listen schicken

    Re-Uploads folgen nach Anfrage meist am Wochenende

    [Links sind nur für registrierte und aktivierte Nutzer sichtbar. Klicke hier um dich zu registrieren.] | [Links sind nur für registrierte und aktivierte Nutzer sichtbar. Klicke hier um dich zu registrieren.] | >[Links sind nur für registrierte und aktivierte Nutzer sichtbar. Klicke hier um dich zu registrieren.]<
    [Links sind nur für registrierte und aktivierte Nutzer sichtbar. Klicke hier um dich zu registrieren.]

  4. 27 Benutzer sagen Danke:

    AkaTenshi (25. August 2015),Akio (31. October 2015),Androkai (4. July 2015),Angelous (28. August 2015),Asuka Langley (24. July 2015),beckiiyy1 (30. June 2015),cloud-strife20 (7. November 2016),data_ghoul (1. November 2015),EngelEatos (8. April 2016),eraz (21. November 2015),Etho89 (9. July 2015),Filbo11 (20. July 2016),freakwatcher (1. July 2015),Griever (5. January 2016),haltdiefresse (18. September 2015),helloplaya (3. October 2016),lucky_mer (8. November 2015),Mr.Shit (3. January 2016),norby (30. June 2015),Saiga (17. October 2015),Sandy7580 (10. April 2016),Scrappedmaster (15. January 2016),Se.phi.roth (10. November 2015),Skeletti (6. July 2015),Toad (31. July 2016),VatosLocos (19. September 2015),Xxchetahx (30. August 2016)

Lesezeichen

Berechtigungen

  • Neue Themen erstellen: Nein
  • Themen beantworten: Nein
  • Anhänge hochladen: Nein
  • Beiträge bearbeiten: Nein
  •  

1 2 3 4 5 6 7 8 9 10 11 12 13 14 15 16 17 18 19 20 21 22 23 24 25 26 27 28 29 30 31 32 33 34 35 36 37 38 39 40 41 42 43 44 45 46 47 48 49 50 51 52 53 54 55 56 57 58 59 60 61 62 63 64 65 66 67 68 69 70 71 72 73 74 75 76 77 78 79 80 81 82 83 84 85 86 87 88 89 90 91 92 93 94 95 96 97 98 99 100 101 102 103 104 105 106 107 108 109 110 111 112 113 114 115 116 117 118 119 120 121 122 123 124 125 126 127 128 129 130 131 132 133 134 135 136 137 138 139 140 141 142 143 144 145 146 147 148 149 150 151 152 153 154 155 156 157 158