Ergebnis 1 bis 2 von 2

Thema: Soul Eater GerEngJapDub EngSub AC3D 2008 720p BluRay x264 - WMD

Dieser Thread wurde noch nicht bewertet. Bewerte ihn doch, wenn er dir gefällt!
  1. #1
    High Quality Anime Avatar von Uploading123
    Registriert seit
    Mar 2013
    Beiträge
    1.009
    Punkte
    44.135
    Errungenschaften:
    TomodachisTagger Amateur25000 ErfahrungspunkteHikikomoriKapitän

    Soul Eater GerEngJapDub EngSub AC3D 2008 720p BluRay x264 - WMD


    Soul.Eater.German.AC3D.2008.ANiME.DL.720p.BluRay.x 264-WMD



    .:Beschreibung:.
    Der Schauplatz von Soul Eater ist die Shibusen-Universität, deren Schüler sogenannte Meister (Shokunin im Original) sind. Jeder von ihnen hat eine Art lebende Waffe als Partner und sie alle verfolgen das Ziel ihre Waffe zu einer Death Scythe zu machen, indem sie die Seelen böser Menschen aufsammeln. Das ist aber mehr eine Motivationshilfe, denn das eigentliche Ziel der Universität ist es zu verhindern, dass diese Seelen in die falschen Hände geraten - im schlimmsten Fall in die von jemanden, der damit versucht einen Kishin (eine Art Dämonengott) zu erschaffen. Der Anime verfolgt nun die Abenteuer der Meister Maka, Black Star und Death the Kid mit ihren jeweiligen Partnern Soul Eater, Tsubaki, Patty und Liz, die alle mehr oder weniger ernsthaft versuchen die Welt vor ihrem Untergang zu bewahren.

    .:Info:.
    Größe: 21736.64 MB
    Laufzeit: pro Folge ca. 24 Min.
    Format: .mkv
    Video Stream: BD
    Video Codec: MPEG-4 H.264 / AVC
    Audio Stream: Stereo
    Sprache/n: GER, ENG, JPN
    Genre: Animation

    .:NFO:.
    Spoiler
    Code:
    General
    Unique ID                                : 223907724935270931821369261450753537892 (0xA8730F2941303CFFB07B3D03DAFCF764)
    Complete Name                            : Soul Eater EP 1  720P Wor Mac`S Download`S H264.mkv
    Format                                   : Matroska
    Format version                           : Version 2
    File size                                : 468 MiB
    Duration                                 : 23mn 37s
    Overall bit rate mode                    : Variable
    Overall bit rate                         : 2 773 Kbps
    Movie name                               : title00
    Encoded date                             : UTC 2011-06-19 01:55:18
    Writing application                      : mkvmerge v4.8.0 ('I Got The...') gebaut am May 24 2011 03:12:58
    Writing library                          : libebml v1.2.0 + libmatroska v1.1.0
    Attachements                             : DARK11_.ttf / Neverwinter.ttf / NITEMARE.TTF / nyala.ttf
    
    Video
    ID                                       : 1
    Format                                   : AVC
    Format/Info                              : Advanced Video Codec
    Format profile                           : [email protected]
    Format settings, CABAC                   : Yes
    Format settings, ReFrames                : 9 frames
    Muxing mode                              : Header stripping
    Codec ID                                 : V_MPEG4/ISO/AVC
    Duration                                 : 23mn 37s
    Bit rate mode                            : Variable
    Maximum bit rate                         : 26.0 Mbps
    Width                                    : 1 280 pixels
    Height                                   : 720 pixels
    Display aspect ratio                     : 16:9
    Frame rate mode                          : Constant
    Frame rate                               : 23.976 fps
    Color space                              : YUV
    Chroma subsampling                       : 4:2:0
    Bit depth                                : 8 bits
    Scan type                                : Progressive
    Title                                    : Episode 1 - Resonance of the Soul
    Writing library                          : x264 core 114 r1924 08d04a4
    Encoding settings                        : cabac=1 / ref=9 / deblock=1:1:1 / analyse=0x3:0x133 / me=umh / subme=10 / psy=1 / psy_rd=1.00:0.00 / mixed_ref=1 / me_range=16 / chroma_me=1 / trellis=2 / 8x8dct=1 / cqm=0 / deadzone=21,11 / fast_pskip=1 / chroma_qp_offset=-2 / threads=6 / sliced_threads=0 / nr=0 / decimate=1 / interlaced=0 / constrained_intra=0 / bframes=9 / b_pyramid=0 / b_adapt=2 / b_bias=0 / direct=1 / weightb=1 / open_gop=0 / weightp=2 / keyint=240 / keyint_min=24 / scenecut=40 / intra_refresh=0 / rc_lookahead=40 / rc=crf / mbtree=1 / crf=18.0 / qcomp=0.60 / qpmin=0 / qpmax=69 / qpstep=4 / vbv_maxrate=26000 / vbv_bufsize=26000 / crf_max=0.0 / nal_hrd=vbr / ip_ratio=1.40 / aq=1:1.00
    Language                                 : English
    Default                                  : Yes
    Forced                                   : No
    
    Audio #1
    ID                                       : 2
    Format                                   : AAC
    Format/Info                              : Advanced Audio Codec
    Format profile                           : LC
    Codec ID                                 : A_AAC
    Duration                                 : 23mn 37s
    Channel(s)                               : 6 channels
    Channel positions                        : Front: L C R, Side: L R, LFE
    Sampling rate                            : 48.0 KHz
    Compression mode                         : Lossy
    Title                                    : English 5.1 Audio
    Language                                 : English
    Default                                  : No
    Forced                                   : No
    
    Audio #2
    ID                                       : 3
    Format                                   : AAC
    Format/Info                              : Advanced Audio Codec
    Format profile                           : LC
    Codec ID                                 : A_AAC
    Duration                                 : 23mn 37s
    Channel(s)                               : 2 channels
    Channel positions                        : Front: L R
    Sampling rate                            : 48.0 KHz
    Compression mode                         : Lossy
    Title                                    : Japanese 2.0 Audio
    Language                                 : Japanese
    Default                                  : No
    Forced                                   : No
    
    Audio #3
    ID                                       : 6
    Format                                   : MPEG Audio
    Format version                           : Version 1
    Format profile                           : Layer 3
    Mode                                     : Joint stereo
    Muxing mode                              : Header stripping
    Codec ID                                 : A_MPEG/L3
    Codec ID/Hint                            : MP3
    Duration                                 : 23mn 37s
    Bit rate mode                            : Constant
    Bit rate                                 : 320 Kbps
    Channel(s)                               : 2 channels
    Sampling rate                            : 48.0 KHz
    Compression mode                         : Lossy
    Stream size                              : 54.1 MiB (12%)
    Language                                 : German
    Default                                  : Yes
    Forced                                   : No
    
    Text #1
    ID                                       : 4
    Format                                   : ASS
    Codec ID                                 : S_TEXT/ASS
    Codec ID/Info                            : Advanced Sub Station Alpha
    Compression mode                         : Lossless
    Title                                    : English OP/ED/Titles
    Language                                 : English
    Default                                  : No
    Forced                                   : No
    
    Text #2
    ID                                       : 5
    Format                                   : ASS
    Codec ID                                 : S_TEXT/ASS
    Codec ID/Info                            : Advanced Sub Station Alpha
    Compression mode                         : Lossless
    Title                                    : English Subtitles
    Language                                 : Japanese
    Default                                  : No
    Forced                                   : No
    
    Menu
    00:00:00.000                             : :00:00:00.000
    00:01:09.861                             : :00:01:09.861
    00:02:40.035                             : :00:02:40.035
    00:15:00.983                             : :00:15:00.983
    00:21:36.003                             : :00:21:36.003
    00:23:06.010                             : :00:23:06.010


    Mirrors kompatibel

    .:Uploaded.net:.
    Geschützter Bereich - Bedanke dich beim Poster, um den Bereich sehen zu können
    Hier erfährst Du wie Du Dich bedanken kannst oder werde jetzt Premium Mitglied ab einer Spende von 5€ und erhalte sofortigen Zugriff auf den Downloadbereich!

    .:Share-online.biz:.
    Geschützter Bereich - Bedanke dich beim Poster, um den Bereich sehen zu können
    Hier erfährst Du wie Du Dich bedanken kannst oder werde jetzt Premium Mitglied ab einer Spende von 5€ und erhalte sofortigen Zugriff auf den Downloadbereich!


  2. 104 Benutzer sagen Danke:

    Anzeigen

    Aikesh (24. August 2015),Akio (8. November 2015),AlexDerErste (24. October 2015),animefan84 (12. July 2015),Anvandya (16. October 2015),aquarius (30. March 2015),archonize (8. July 2015),Asuka Langley (16. July 2015),Auxilias_inactive (9. May 2015),beckerm (26. January 2016),BlackDragon333 (13. June 2015),Buschkilla (15. July 2015),chris1989 (1. May 2015),Chris204 (5. August 2015),Clankinator (1. October 2016),Cloud002 (20. July 2015),Cooop34 (28. January 2016),Cy_Baer (11. July 2015),Dalurin (26. June 2016),Daniel (12. July 2015),DarkTerminator (10. April 2015),DBounce (8. January 2016),Demolchen (19. May 2015),duscha2925 (14. September 2015),ElCapitan (8. October 2016),elrazi (11. November 2015),famoon (26. March 2016),foxasult (3. May 2015),FrankyxD (17. August 2015),Fuashes (19. May 2015),Goldwipf (17. March 2016),Griever (5. January 2016),Hi im Shini (30. December 2015),Hisamaki (4. April 2016),huntercity (5. August 2015),Ibanezar (3. January 2016),Infi (30. March 2015),JugoBetrugo (6. November 2015),Kazuma (4. November 2015),keku (13. April 2016),Killua (24. September 2015),KiritoMazayo (13. May 2015),Knuddelbearli (23. September 2016),koax123 (28. August 2015),kuttyfram (23. December 2015),LawrenceKraft (31. March 2015),let_me_in (2. September 2015),Ley0304 (19. August 2015),littlepin87 (16. July 2015),LomeaDae (12. November 2016),Mahotsuki (15. July 2015),MCRFG (6. July 2016),midnighter (30. March 2015),Missingno (12. June 2016),Morbi2k15 (6. July 2015),MrScenic (21. July 2015),MX-sk (19. June 2016),Newz2014 (14. July 2015),Nexus777 (6. September 2015),norby (11. July 2015),Nyan (16. June 2015),parmaschinken (13. April 2015),PeterPan235 (30. March 2015),piggsylol (4. October 2016),Poocky (11. November 2016),Priim0 (26. August 2015),punk95 (14. September 2015),qenda (18. May 2015),Raijin96 (27. July 2015),redithebat (14. May 2015),riezik (16. October 2015),san1n (23. November 2015),sanjiblubb (23. July 2015),SenseiSasone (18. June 2015),SetsunaKurokiri (2. April 2015),Sexmann (28. September 2016),Shikur0 (24. April 2015),Shinosenshi (10. September 2015),Shirou (30. March 2015),shokinn (12. September 2016),sparx44 (23. August 2015),sponkyplayer (9. April 2015),Subroutine (12. March 2016),sure21 (15. November 2015),Swani (26. June 2016),syman8989 (28. October 2016),Tarlysin (13. March 2016),th3cr0w (8. February 2016),Thalinomel (20. May 2016),thegroudge (10. September 2015),TheNightmare88 (30. March 2015),TheTestzilla (11. July 2015),The_Other_One (1. October 2015),tohotono1987 (26. August 2015),torusso12 (29. March 2015),treffgarnix (31. March 2015),Truzter (1. April 2015),T§sseract (16. July 2016),VatosLocos (6. September 2015),windows8 (19. August 2015),Xxchetahx (14. June 2015),ZomKne (29. July 2015),zorro177 (3. November 2016)

  3. #2
    United we Stand Avatar von 00Ryuji00
    Registriert seit
    Oct 2012
    Beiträge
    3.902
    Punkte
    100.092
    Errungenschaften:
    TomodachisGang LeaderHikikomoriTagger Amateur50000 Erfahrungspunkte

    AW: Soul Eater [Ger-Eng-Jap-Dub][Eng-Sub][720p][BluRay] - WMD

    Soul Eater
    ソウルイーター



    Kurzbeschreibung:
    Der Schauplatz von Soul Eater ist die Shibusen-Universität, deren Schüler sogenannte Meister (Shokunin im Original) sind. Jeder von ihnen hat eine Art lebende Waffe als Partner und sie alle verfolgen das Ziel ihre Waffe zu einer Death Scythe zu machen, indem sie die Seelen böser Menschen aufsammeln. Das ist aber mehr eine Motivationshilfe, denn das eigentliche Ziel der Universität ist es zu verhindern, dass diese Seelen in die falschen Hände geraten - im schlimmsten Fall in die von jemanden, der damit versucht einen Kishin (eine Art Dämonengott) zu erschaffen. Der Anime verfolgt nun die Abenteuer der Meister Maka, Black Star und Death the Kid mit ihren jeweiligen Partnern Soul Eater, Tsubaki, Patty und Liz, die alle mehr oder weniger ernsthaft versuchen die Welt vor ihrem Untergang zu bewahren.
    Sprache: Deutsch, Englisch, Japanisch
    Untertitel: Englisch
    Spieldauer: ~ 24min
    Größe: ~ 330-575MB
    Episodenanzahl: 51/51
    Format: .mkv
    Auflösung: 720p (1280x720, 16:9)
    Codec: x264, AAC/MP3
    Gruppe: WMD
    Hoster: Uploaded, Share-Online

    Datei-Info.:
    Spoiler
    Code:
    Format                                   : Matroska
    Format version                           : Version 2
    File size                                : 468 MiB
    Duration                                 : 23mn 37s
    Overall bit rate mode                    : Variable
    Overall bit rate                         : 2 773 Kbps
    Movie name                               : title00
    Encoded date                             : UTC 2011-06-19 01:55:18
    Writing application                      : mkvmerge v4.8.0 ('I Got The...') gebaut am May 24 2011 03:12:58
    Writing library                          : libebml v1.2.0 + libmatroska v1.1.0
    Attachment                               : Yes / Yes / Yes / Yes
    
    Video
    ID                                       : 1
    Format                                   : AVC
    Format/Info                              : Advanced Video Codec
    Format profile                           : [email protected]
    Format settings, CABAC                   : Yes
    Format settings, ReFrames                : 9 frames
    Muxing mode                              : Header stripping
    Codec ID                                 : V_MPEG4/ISO/AVC
    Duration                                 : 23mn 37s
    Bit rate mode                            : Variable
    Maximum bit rate                         : 26.0 Mbps
    Width                                    : 1 280 pixels
    Height                                   : 720 pixels
    Display aspect ratio                     : 16:9
    Frame rate mode                          : Constant
    Frame rate                               : 23.976 fps
    Color space                              : YUV
    Chroma subsampling                       : 4:2:0
    Bit depth                                : 8 bits
    Scan type                                : Progressive
    Title                                    : Episode 1 - Resonance of the Soul
    Writing library                          : x264 core 114 r1924 08d04a4
    Encoding settings                        : cabac=1 / ref=9 / deblock=1:1:1 / analyse=0x3:0x133 / me=umh / subme=10 / psy=1 / psy_rd=1.00:0.00 / mixed_ref=1 / me_range=16 / chroma_me=1 / trellis=2 / 8x8dct=1 / cqm=0 / deadzone=21,11 / fast_pskip=1 / chroma_qp_offset=-2 / threads=6 / sliced_threads=0 / nr=0 / decimate=1 / interlaced=0 / constrained_intra=0 / bframes=9 / b_pyramid=0 / b_adapt=2 / b_bias=0 / direct=1 / weightb=1 / open_gop=0 / weightp=2 / keyint=240 / keyint_min=24 / scenecut=40 / intra_refresh=0 / rc_lookahead=40 / rc=crf / mbtree=1 / crf=18.0 / qcomp=0.60 / qpmin=0 / qpmax=69 / qpstep=4 / vbv_maxrate=26000 / vbv_bufsize=26000 / crf_max=0.0 / nal_hrd=vbr / ip_ratio=1.40 / aq=1:1.00
    Language                                 : English
    Default                                  : Yes
    Forced                                   : No
    
    Audio #1
    ID                                       : 2
    Format                                   : AAC
    Format/Info                              : Advanced Audio Codec
    Format profile                           : LC
    Codec ID                                 : A_AAC
    Duration                                 : 23mn 37s
    Channel count                            : 6 channels
    Channel positions                        : Front: L C R, Side: L R, LFE
    Sampling rate                            : 48.0 KHz
    Compression mode                         : Lossy
    Title                                    : English 5.1 Audio
    Language                                 : English
    Default                                  : No
    Forced                                   : No
    
    Audio #2
    ID                                       : 3
    Format                                   : AAC
    Format/Info                              : Advanced Audio Codec
    Format profile                           : LC
    Codec ID                                 : A_AAC
    Duration                                 : 23mn 37s
    Channel count                            : 2 channels
    Channel positions                        : Front: L R
    Sampling rate                            : 48.0 KHz
    Compression mode                         : Lossy
    Title                                    : Japanese 2.0 Audio
    Language                                 : Japanese
    Default                                  : No
    Forced                                   : No
    
    Audio #3
    ID                                       : 6
    Format                                   : MPEG Audio
    Format version                           : Version 1
    Format profile                           : Layer 3
    Mode                                     : Joint stereo
    Muxing mode                              : Header stripping
    Codec ID                                 : A_MPEG/L3
    Codec ID/Hint                            : MP3
    Duration                                 : 23mn 37s
    Bit rate mode                            : Constant
    Bit rate                                 : 320 Kbps
    Channel count                            : 2 channels
    Sampling rate                            : 48.0 KHz
    Compression mode                         : Lossy
    Stream size                              : 54.1 MiB (12%)
    Language                                 : German
    Default                                  : Yes
    Forced                                   : No
    
    Text #1
    ID                                       : 4
    Format                                   : ASS
    Codec ID                                 : S_TEXT/ASS
    Codec ID/Info                            : Advanced Sub Station Alpha
    Compression mode                         : Lossless
    Title                                    : English OP/ED/Titles
    Language                                 : English
    Default                                  : No
    Forced                                   : No
    
    Text #2
    ID                                       : 5
    Format                                   : ASS
    Codec ID                                 : S_TEXT/ASS
    Codec ID/Info                            : Advanced Sub Station Alpha
    Compression mode                         : Lossless
    Title                                    : English Subtitles
    Language                                 : Japanese
    Default                                  : No
    Forced                                   : No
    
    Menu
    00:00:00.000                             : :00:00:00.000
    00:01:09.861                             : :00:01:09.861
    00:02:40.035                             : :00:02:40.035
    00:15:00.983                             : :00:15:00.983
    00:21:36.003                             : :00:21:36.003
    00:23:06.010                             : :00:23:06.010
    


    Geschützter Bereich - Bedanke dich beim Poster, um den Bereich sehen zu können
    Hier erfährst Du wie Du Dich bedanken kannst oder werde jetzt Premium Mitglied ab einer Spende von 5€ und erhalte sofortigen Zugriff auf den Downloadbereich!
    !!!Alle Anliegen bezüglich Uploads werden nur mit direktem Threadlink zum Angebot bearbeitet!!!

    Re-Uploadanfragen nur per PN - Ihr könnt mir auch Listen schicken

    Re-Uploads folgen nach Anfrage meist am Wochenende

    [Links sind nur für registrierte und aktivierte Nutzer sichtbar. Klicke hier um dich zu registrieren.] | [Links sind nur für registrierte und aktivierte Nutzer sichtbar. Klicke hier um dich zu registrieren.] | >[Links sind nur für registrierte und aktivierte Nutzer sichtbar. Klicke hier um dich zu registrieren.]<
    [Links sind nur für registrierte und aktivierte Nutzer sichtbar. Klicke hier um dich zu registrieren.]

  4. 45 Benutzer sagen Danke:

    Aikesh (24. August 2015),Anvandya (17. October 2015),beckerm (26. January 2016),Chris204 (5. August 2015),Clankinator (1. October 2016),Cloud002 (20. July 2015),darkhammer (7. May 2016),Demichi (3. September 2015),DommiNanz (13. September 2015),Donquixote (24. December 2015),dragonking87 (5. October 2015),elrazi (11. November 2015),EpiX (23. December 2015),FrankyxD (14. August 2015),Goki.Grokus (9. October 2016),Griever (5. January 2016),haltdiefresse (28. December 2015),heikobaer (7. November 2015),Hi im Shini (30. December 2015),Hirs_E_Fruit (2. August 2015),Kazuma (4. November 2015),keku (13. April 2016),Killua (24. September 2015),Knuddelbearli (23. September 2016),LomeaDae (12. November 2016),michael187 (8. April 2016),Necronomikon (2. January 2016),norby (11. July 2015),piggsylol (4. October 2016),Poocky (11. November 2016),punk95 (14. September 2015),re.tischi (21. December 2015),san1n (23. November 2015),Sexmann (28. September 2016),Shirou (11. July 2015),shokinn (12. September 2016),sure21 (15. November 2015),syman8989 (28. October 2016),Tarlysin (13. March 2016),Thalinomel (13. December 2015),thegroudge (25. July 2015),The_Other_One (1. October 2015),T§sseract (16. July 2016),VatosLocos (6. September 2015),zorro177 (3. November 2016)

Lesezeichen

Berechtigungen

  • Neue Themen erstellen: Nein
  • Themen beantworten: Nein
  • Anhänge hochladen: Nein
  • Beiträge bearbeiten: Nein
  •  

1 2 3 4 5 6 7 8 9 10 11 12 13 14 15 16 17 18 19 20 21 22 23 24 25 26 27 28 29 30 31 32 33 34 35 36 37 38 39 40 41 42 43 44 45 46 47 48 49 50 51 52 53 54 55 56 57 58 59 60 61 62 63 64 65 66 67 68 69 70 71 72 73 74 75 76 77 78 79 80 81 82 83 84 85 86 87 88 89 90 91 92 93 94 95 96 97 98 99 100 101 102 103 104 105 106 107 108 109 110 111 112 113 114 115 116 117 118 119 120 121 122 123 124 125 126 127 128 129 130 131 132 133 134 135 136 137 138 139 140 141 142 143 144 145 146 147 148 149 150 151 152 153 154 155 156 157 158