Ergebnis 1 bis 2 von 2

Thema: Starship Operators [Ger-Jap-Dub][Ger-Sub][DVDRip]-IND

Dieser Thread wurde durchschnittlich mit 5 Sternen bewertet, wobei 1 Stern die schlechteste und 5 Sterne die beste Bewertung ist. Es haben insgesamt 1 Mitglieder eine Bewertung abgegeben.

  1. #1
    United we Stand Avatar von 00Ryuji00
    Registriert seit
    Oct 2012
    Beiträge
    3.902
    Punkte
    100.019
    Errungenschaften:
    TomodachisGang LeaderHikikomoriTagger Amateur50000 Erfahrungspunkte

    Starship Operators [Ger-Jap-Dub][Ger-Sub][DVDRip]-IND


    Starship Operators






    Kurzbeschreibung:
    Zitat Zitat von AniSearch.com
    Covertext:
    Die Kadetten des 73. Jahrgangs der Militärakademie auf dem Planeten Kibi stehen kurz vorm Abschluss ihrer Ausbildung. Auf einer ihrer letzten Übungsflüge auf dem Wachschiff Amaterasu ereilt sie die Nachricht, dass das Bündnis der benachbarten Planeten von Henrietta, besser bekannt als "Das Königreich", der Nation des Planeten Kibi den Krieg erklärt hat. Während die Regierung Kibis ob der Aggressivität und militärischen Überlegenheit des Königreiches ohne zu zögern kapituliert, wollen sich die Kadetten nicht kampflos ergeben. Mit der finanziellen Unterstützung des TV-Senders Galaxy Network begeben sich die Kadetten auf der Amaterasu in den Kampf gegen das Königreich. Doch Galaxy Network verlangt auch eine Gegenleistung für ihre Geldspritze: Wie in einer "Reality Show" wird jede Aktion und Handlung der jungen Militärs im intergalaktischen Fernsehen übertragen. Nicht gerade zu ihrem Vorteil, denn der Feind schaut mit.


    Spieldauer: 24min
    Genre: Drama
    Nebengenres: Action, Drama, Romanze, Scifi
    Jahr: 2005
    Sprache: Deutsch, Japanisch
    Untertitel: Deutsch
    Größe pro Folge: ~230 MiB
    Episodenanzahl: 13/13
    Format: AVI
    Auflösung: 400p (16:9)
    Videocodec: XviD (MPEG-4 Visual)
    Audiocodec: MPEG Audio
    Releasegruppe: IND
    Hoster: Share-Online, Uploaded


    MediaInfo
    Code:
    
    Format                                   : AVI
    Format/Info                              : Audio Video Interleave
    File size                                : 230 MiB
    Duration                                 : 25mn 5s
    Overall bit rate                         : 1 281 Kbps
    Writing application                      : VirtualDubMod 1.5.10.2 (build 2540/release)
    Writing library                          : VirtualDubMod build 2540/release
    
    Video
    ID                                       : 0
    Format                                   : MPEG-4 Visual
    Format profile                           : Advanced [email protected]
    Format settings, BVOP                    : 2
    Format settings, QPel                    : No
    Format settings, GMC                     : No warppoints
    Format settings, Matrix                  : Default (H.263)
    Muxing mode                              : Packed bitstream
    Codec ID                                 : XVID
    Codec ID/Hint                            : XviD
    Duration                                 : 25mn 5s
    Bit rate                                 : 947 Kbps
    Width                                    : 720 pixels
    Height                                   : 400 pixels
    Display aspect ratio                     : 16:9
    Frame rate                               : 25.000 fps
    Color space                              : YUV
    Chroma subsampling                       : 4:2:0
    Bit depth                                : 8 bits
    Scan type                                : Progressive
    Compression mode                         : Lossy
    Bits/(Pixel*Frame)                       : 0.132
    Stream size                              : 170 MiB (74%)
    Writing library                          : XviD 1.1.0 (UTC 2005-11-22)
    
    Audio #1
    ID                                       : 1
    Format                                   : MPEG Audio
    Format version                           : Version 1
    Format profile                           : Layer 3
    Mode                                     : Joint stereo
    Mode extension                           : MS Stereo
    Codec ID                                 : 55
    Codec ID/Hint                            : MP3
    Duration                                 : 25mn 4s
    Bit rate mode                            : Constant
    Bit rate                                 : 160 Kbps
    Channel(s)                               : 2 channels
    Sampling rate                            : 48.0 KHz
    Compression mode                         : Lossy
    Stream size                              : 28.7 MiB (12%)
    Alignment                                : Aligned on interleaves
    Interleave, duration                     : 40 ms (1.00 video frame)
    Interleave, preload duration             : 504 ms
    
    Audio #2
    ID                                       : 2
    Format                                   : MPEG Audio
    Format version                           : Version 1
    Format profile                           : Layer 3
    Mode                                     : Joint stereo
    Mode extension                           : MS Stereo
    Codec ID                                 : 55
    Codec ID/Hint                            : MP3
    Duration                                 : 25mn 4s
    Bit rate mode                            : Constant
    Bit rate                                 : 160 Kbps
    Channel(s)                               : 2 channels
    Sampling rate                            : 48.0 KHz
    Compression mode                         : Lossy
    Stream size                              : 28.7 MiB (12%)
    Alignment                                : Aligned on interleaves
    Interleave, duration                     : 40 ms (1.00 video frame)
    Interleave, preload duration             : 504 ms
    
    




    Geschützter Bereich - Bedanke dich beim Poster, um den Bereich sehen zu können
    Hier erfährst Du wie Du Dich bedanken kannst oder werde jetzt Premium Mitglied ab einer Spende von 5€ und erhalte sofortigen Zugriff auf den Downloadbereich!

    [Links sind nur für registrierte und aktivierte Nutzer sichtbar. Klicke hier um dich zu registrieren.]
    !!!Alle Anliegen bezüglich Uploads werden nur mit direktem Threadlink zum Angebot bearbeitet!!!

    Re-Uploadanfragen nur per PN - Ihr könnt mir auch Listen schicken

    Re-Uploads erfolgen meist innerhalb 24h, kann aber auch bis zu 7 Tage dauern

    [Links sind nur für registrierte und aktivierte Nutzer sichtbar. Klicke hier um dich zu registrieren.] | [Links sind nur für registrierte und aktivierte Nutzer sichtbar. Klicke hier um dich zu registrieren.] | >[Links sind nur für registrierte und aktivierte Nutzer sichtbar. Klicke hier um dich zu registrieren.]<
    [Links sind nur für registrierte und aktivierte Nutzer sichtbar. Klicke hier um dich zu registrieren.]

  2. 30 Benutzer sagen Danke:

    acer25 (13. November 2016),Aizen-Sama (7. November 2016),andyb90 (29. April 2016),Arekusu (27. April 2016),Asuka Langley (28. April 2016),Black_ Reaper (5. May 2016),chopper23 (27. April 2016),Coolwars (6. August 2016),dacheff (26. April 2016),darkangel92 (26. April 2016),derEisige (2. June 2016),downloader_1987 (28. April 2016),egon1212 (30. April 2016),freakwatcher (26. April 2016),Invader_Zim (13. November 2016),JackyMono (14. May 2016),Jinnay (28. April 2016),JoleenLovesMina (7. June 2016),Larsinho (12. November 2016),LawrenceKraft (19. June 2016),MCRFG (26. April 2016),midnighter (5. September 2016),old nick (26. April 2016),Rena (19. May 2016),Repcak (4. May 2016),sch (3. December 2016),Shadow475 (30. November 2016),Sodomizer (27. November 2016),Superzorro (26. April 2016),tompace (26. April 2016)

  3. #2
    United we Stand Avatar von 00Ryuji00
    Registriert seit
    Oct 2012
    Beiträge
    3.902
    Punkte
    100.019
    Errungenschaften:
    TomodachisGang LeaderHikikomoriTagger Amateur50000 Erfahrungspunkte

    AW: Starship Operators [Ger-Jap-Dub][Ger-Sub][DVDRip]-IND

    Update: Dateien auf Wunsch wieder online.
    !!!Alle Anliegen bezüglich Uploads werden nur mit direktem Threadlink zum Angebot bearbeitet!!!

    Re-Uploadanfragen nur per PN - Ihr könnt mir auch Listen schicken

    Re-Uploads erfolgen meist innerhalb 24h, kann aber auch bis zu 7 Tage dauern

    [Links sind nur für registrierte und aktivierte Nutzer sichtbar. Klicke hier um dich zu registrieren.] | [Links sind nur für registrierte und aktivierte Nutzer sichtbar. Klicke hier um dich zu registrieren.] | >[Links sind nur für registrierte und aktivierte Nutzer sichtbar. Klicke hier um dich zu registrieren.]<
    [Links sind nur für registrierte und aktivierte Nutzer sichtbar. Klicke hier um dich zu registrieren.]

Lesezeichen

Berechtigungen

  • Neue Themen erstellen: Nein
  • Themen beantworten: Nein
  • Anhänge hochladen: Nein
  • Beiträge bearbeiten: Nein
  •  

1 2 3 4 5 6 7 8 9 10 11 12 13 14 15 16 17 18 19 20 21 22 23 24 25 26 27 28 29 30 31 32 33 34 35 36 37 38 39 40 41 42 43 44 45 46 47 48 49 50 51 52 53 54 55 56 57 58 59 60 61 62 63 64 65 66 67 68 69 70 71 72 73 74 75 76 77 78 79 80 81 82 83 84 85 86 87 88 89 90 91 92 93 94 95 96 97 98 99 100 101 102 103 104 105 106 107 108 109 110 111 112 113 114 115 116 117 118 119 120 121 122 123 124 125 126 127 128 129 130 131 132 133 134 135 136 137 138 139 140 141 142 143 144 145 146 147 148 149 150 151 152 153 154 155 156 157 158