Ergebnis 1 bis 1 von 1

Thema: Tasogare Otome x Amnesia [Ger-Jap-Dub][Ger-Sub][1080p-10Bit][BluRay] - wozzy

Dieser Thread wurde noch nicht bewertet. Bewerte ihn doch, wenn er dir gefällt!
  1. #1
    Uploader Avatar von Filbo11
    Registriert seit
    Jan 2015
    Beiträge
    931
    Punkte
    17.281
    Errungenschaften:
    TomodachisErste Gruppe1 Jahr registriertCreated Album picturesTagger First Class

    Tasogare Otome x Amnesia [Ger-Jap-Dub][Ger-Sub][1080p-10Bit][BluRay] - wozzy

    Tasogare Otome x Amnesia
    黄昏乙女xアムネジア
    Dusk Maiden of Amnesia




    Beschreibung

    Die Geschichte spielt an einem privaten Internat. Dieses Internat ist bekannt dafür, dass es des Öfteren zu Geisterjagden kommt und dass an dieser Schule ein Mädchen namens Yuuku herumirrt. Aus irgendeinem Grund kann nur Teiichi Niiya, Schüler der Mittelstufe, dieses Mädchen sehen. Yuuku selbst hat keinerlei Erinnerungen an ihren Tod, geschweige denn, durch wen oder durch was sie starb. Teiichi und Yuuku schließen sich zusammen, um hinter das Geheimnis ihres Todes zu kommen und um die Geheimnisse der Schule zu lüften.

    Format: mkv
    Dauer: ca. 24 min
    Größe: ca. 2GB
    Episodenanzahl: 12/12 +1/1
    Sprache: Japanisch & Deutsch
    Untertitel: Deutsch
    Group: [wozzy]
    Hoster: Uploaded.net & Share-Online.biz
    Passwort: byFilbo11


    Screenshots & MediaInfo

    Spoiler
    [Links sind nur für registrierte und aktivierte Nutzer sichtbar. Klicke hier um dich zu registrieren.]

    Code:
    General
    
    Complete name               : Tasogare.Otome.x.Amnesia.01.BD.1080p.10bit.DL.PCM.DTS-wozzy.mkv
    Format                      : Matroska
    Format version              : Version 4 / Version 2
    File size                   : 2.17 GiB
    Duration                    : 23 min
    Overall bit rate            : 13.1 Mb/s
    Encoded date                : UTC 2016-06-11 20:23:56
    Writing application         : mkvmerge v8.8.0 ('Wind at my back') 64bit
    Writing library             : libebml v1.3.3 + libmatroska v1.4.4
    
    Video
    ID                          : 1
    Format                      : AVC
    Format/Info                 : Advanced Video Codec
    Format profile              : High [email protected]
    Format settings, CABAC      : Yes
    Format settings, ReFrames   : 16 frames
    Codec ID                    : V_MPEG4/ISO/AVC
    Duration                    : 23 min
    Bit rate                    : 9 487 kb/s
    Width                       : 1 920 pixels
    Height                      : 1 080 pixels
    Display aspect ratio        : 16:9
    Frame rate mode             : Constant
    Frame rate                  : 23.976 (24000/1001) FPS
    Color space                 : YUV
    Chroma subsampling          : 4:2:0
    Bit depth                   : 10 bits
    Scan type                   : Progressive
    Bits/(Pixel*Frame)          : 0.191
    Stream size                 : 1.57 GiB (72%)
    Writing library             : x264 core 148 r2692kMod 64f4e24
    Encoding settings           : cabac=1 / ref=16 / deblock=1:0:-1 / analyse=0x3:0x133 / me=umh / subme=10 / psy=1 / fade_compensate=0.00 / psy_rd=0.60:0.20 / mixed_ref=1 / me_range=32 / chroma_me=1 / trellis=2 / 8x8dct=1 / cqm=0 / deadzone=21,11 / fast_pskip=1 / chroma_qp_offset=-3 / threads=12 / lookahead_threads=3 / sliced_threads=0 / nr=0 / decimate=1 / interlaced=0 / bluray_compat=0 / constrained_intra=0 / fgo=0 / bframes=16 / b_pyramid=2 / b_adapt=2 / b_bias=0 / direct=3 / weightb=1 / open_gop=0 / weightp=2 / keyint=240 / keyint_min=23 / scenecut=40 / intra_refresh=0 / rc_lookahead=240 / rc=crf / mbtree=1 / crf=16.0000 / qcomp=0.60 / qpmin=0 / qpmax=81 / qpstep=4 / ip_ratio=1.40 / aq=3:1.20
    Default                     : Yes
    Forced                      : No
    
    Audio #1
    ID                          : 2
    Format                      : PCM
    Format settings, Endianness : Big
    Codec ID                    : A_PCM/INT/BIG
    Duration                    : 23 min
    Bit rate mode               : Constant
    Bit rate                    : 1 536 kb/s
    Channel(s)                  : 2 channels
    Sampling rate               : 48.0 kHz
    Frame rate                  : 200.000 FPS (240 spf)
    Bit depth                   : 16 bits
    Delay relative to video     : 4 ms
    Stream size                 : 260 MiB (12%)
    Language                    : Japanese
    Default                     : Yes
    Forced                      : No
    
    Audio #2
    ID                          : 3
    Format                      : DTS
    Format/Info                 : Digital Theater Systems
    Format profile              : MA / Core
    Mode                        : 16
    Format settings, Endianness : Big
    Codec ID                    : A_DTS
    Duration                    : 23 min
    Bit rate mode               : Variable / Constant
    Bit rate                    : 2 095 kb/s / 1 509 kb/s
    Channel(s)                  : 2 channels
    Channel positions           : Front: L R
    Sampling rate               : 48.0 kHz
    Frame rate                  : 93.750 FPS (512 spf)
    Bit depth                   : 24 bits
    Compression mode            : Lossless / Lossy
    Stream size                 : 355 MiB (16%)
    Language                    : German
    Default                     : No
    Forced                      : No
    
    Text #1
    ID                          : 4
    Format                      : PGS
    Muxing mode                 : zlib
    Codec ID                    : S_HDMV/PGS
    Codec ID/Info               : Picture based subtitle format used on BDs/HD-DVDs
    Duration                    : 23 min
    Bit rate                    : 18.5 kb/s
    Count of elements           : 936
    Stream size                 : 3.10 MiB (0%)
    Language                    : German
    Default                     : Yes
    Forced                      : No
    
    Text #2
    ID                          : 5
    Format                      : PGS
    Muxing mode                 : zlib
    Codec ID                    : S_HDMV/PGS
    Codec ID/Info               : Picture based subtitle format used on BDs/HD-DVDs
    Duration                    : 23 min
    Bit rate                    : 1 271 b/s
    Count of elements           : 76
    Stream size                 : 217 KiB (0%)
    Language                    : German
    Default                     : No
    Forced                      : No


    Alle Mirrors untereinander kompatibel
    Folgen einzeln ladbar



    Download

    Geschützter Bereich - Bedanke dich beim Poster, um den Bereich sehen zu können
    Hier erfährst Du wie Du Dich bedanken kannst oder werde jetzt Premium Mitglied ab einer Spende von 5€ und erhalte sofortigen Zugriff auf den Downloadbereich!


    Geändert von Filbo11 (1. August 2016 um 07:48 Uhr) Grund: passwort vergessen

    [Links sind nur für registrierte und aktivierte Nutzer sichtbar. Klicke hier um dich zu registrieren.]

    Ich wäre allen sehr dankbar, die mir gravierende Fehler in meinen Releases per PN melden

  2. 44 Benutzer sagen Danke:

    Aluaran (1. August 2016),Ardock (19. August 2016),Baschti1989 (10. September 2016),Black Lotus (3. August 2016),BlackPhoenix (22. August 2016),Bloodyair (18. August 2016),bokor90 (11. October 2016),Chillasedi (26. August 2016),Conopas (5. August 2016),Cy_Baer (31. July 2016),Dendara (4. December 2016),doN1337 (15. September 2016),Facebreaker (29. August 2016),Ghostraven (31. July 2016),Gorshi (13. August 2016),huntercity (8. September 2016),hunterhunter (1. September 2016),Jinnay (31. July 2016),Kartox (16. October 2016),knanime (19. August 2016),Latyr (11. August 2016),midnighter (4. August 2016),nabou (3. August 2016),numbke (12. September 2016),PingFake (1. August 2016),pressure (26. September 2016),prinzvegeta (5. August 2016),Pure (8. August 2016),Raziel (2. August 2016),Reaper1 (6. August 2016),Rittai (16. August 2016),Ronae (1. August 2016),san1n (30. August 2016),sapzero (6. August 2016),sebmori (6. September 2016),smaik (13. August 2016),Tai1988 (31. July 2016),Tenma90 (1. August 2016),Tidus18 (6. September 2016),undertaker0951 (17. August 2016),Watashisan (20. August 2016),Windwusel (31. July 2016),Zarroc1 (2. August 2016),Zumay (6. August 2016)

Stichworte

Lesezeichen

Berechtigungen

  • Neue Themen erstellen: Nein
  • Themen beantworten: Nein
  • Anhänge hochladen: Nein
  • Beiträge bearbeiten: Nein
  •  

1 2 3 4 5 6 7 8 9 10 11 12 13 14 15 16 17 18 19 20 21 22 23 24 25 26 27 28 29 30 31 32 33 34 35 36 37 38 39 40 41 42 43 44 45 46 47 48 49 50 51 52 53 54 55 56 57 58 59 60 61 62 63 64 65 66 67 68 69 70 71 72 73 74 75 76 77 78 79 80 81 82 83 84 85 86 87 88 89 90 91 92 93 94 95 96 97 98 99 100 101 102 103 104 105 106 107 108 109 110 111 112 113 114 115 116 117 118 119 120 121 122 123 124 125 126 127 128 129 130 131 132 133 134 135 136 137 138 139 140 141 142 143 144 145 146 147 148 149 150 151 152 153 154 155 156 157 158