Ergebnis 1 bis 1 von 1

Thema: Tico Ein toller Freund Ger-Dub 1994 MP3 DVDRip XviD - iND

Dieser Thread wurde durchschnittlich mit 5 Sternen bewertet, wobei 1 Stern die schlechteste und 5 Sterne die beste Bewertung ist. Es haben insgesamt 1 Mitglieder eine Bewertung abgegeben.

  1. #1
    High Quality Anime Avatar von Uploading123
    Registriert seit
    Mar 2013
    Beiträge
    1.006
    Punkte
    44.015
    Errungenschaften:
    TomodachisTagger Amateur25000 ErfahrungspunkteHikikomoriKapitän

    Tico Ein toller Freund Ger-Dub 1994 MP3 DVDRip XviD - iND


    Tico Ein toller Freund 1994 MP3 DVDRip XviD - iND




    Nanami ist zehn Jahre alt und ihr bester Freund ist der Orca-Wal Tico. Ihre Mutter starb, als sie noch sehr klein war und lebt deswegen mit ihrem Vater Scott alleine. Beide ziehen auf die Pepperotti, einem kleinen Schiff, das dem Freund (Al) von Scott gehört. Scotts Ziel ist es, den "leuchtenden Wal" zu finden. Mit der Zeit kommen auch Sharly und ihr Buttler James auf das Schiff und ein kleiner Junge Namens Thomas. Gemeinsam suchen sie den leuchtenden Wal. Alles scheint in bester Ordnung zu sein, wären da nicht gierige Leute, die ebenfalls den Wal finden wollen. Und zu allem Überfluss geschieht auch noch ein Unglück, bei dem Tico stirbt und zurück bleibt ihr Sohn Junior und eine tot unglückliche Nanami, für die eine Welt zusammenbricht. Jetzt muss sich Nanami um Junior kümmern, der Nanami aber überhaupt nicht mag, weil Nanami sich so gut mit seiner Mutter verstand. Doch nun sind sie ihrem Ziel näher, wie je zu vor. Schaffen es Nanami und Junior Freunde zu werden? Und gelingt es ihnen den leuchtenden Wal zu finden?


    Größe: 7.9 GB // ca. 200 MB pro Folge
    Laufzeit: ca. 24 Minuten pro Folge
    Auflösung: 640x480
    Bittiefe: 8-Bit
    Audio: MP3
    Format: avi
    Codec: XviD
    Sprache: Deutsch
    Release Group: iND

    Mediainfo
    Spoiler

    General
    Complete name : Tico.Folge.01.Jagd.auf.den.weissen.Hai.German.Dubb ed.DVDRip.XVID-iND.avi
    Format : AVI
    Format/Info : Audio Video Interleave
    Format profile : OpenDML
    Format settings : rec
    File size : 216 MiB
    Duration : 23mn 37s
    Overall bit rate : 1 281 Kbps
    Writing application : AVI-Mux GUI 1.17.8.3, Feb 16 201019:42:50

    Video
    ID : 0
    Format : MPEG-4 Visual
    Format profile : Advanced [email protected]
    Format settings, BVOP : 1
    Format settings, QPel : Yes
    Format settings, GMC : No warppoints
    Format settings, Matrix : Default (MPEG)
    Codec ID : XVID
    Codec ID/Hint : XviD
    Duration : 23mn 37s
    Bit rate : 1 149 Kbps
    Width : 640 pixels
    Height : 480 pixels
    Display aspect ratio : 4:3
    Frame rate : 23.976 fps
    Color space : YUV
    Chroma subsampling : 4:2:0
    Bit depth : 8 bits
    Scan type : Progressive
    Compression mode : Lossy
    Bits/(Pixel*Frame) : 0.156
    Stream size : 194 MiB (90%)
    Writing library : XviD 1.2.1 (UTC 2008-12-04)

    Audio
    ID : 1
    Format : MPEG Audio
    Format version : Version 1
    Format profile : Layer 3
    Mode : Joint stereo
    Mode extension : MS Stereo
    Codec ID : 55
    Codec ID/Hint : MP3
    Duration : 23mn 37s
    Bit rate mode : Constant
    Bit rate : 128 Kbps
    Channel count : 2 channels
    Sampling rate : 48.0 KHz
    Compression mode : Lossy
    Stream size : 21.6 MiB (10%)
    Alignment : Aligned on interleaves
    Interleave, duration : 673 ms (16.12 video frames)
    Interleave, preload duration : 216 ms
    Title : 01NeuNeu
    Writing library : LAME3.99r
    Encoding settings : -m j -V 4 -q 0 -lowpass 17 -b 128


    // Folgen einzeln ladbar //

    Mirrors kompatibel

    Geschützter Bereich - Bedanke dich beim Poster, um den Bereich sehen zu können
    Hier erfährst Du wie Du Dich bedanken kannst oder werde jetzt Premium Mitglied ab einer Spende von 5€ und erhalte sofortigen Zugriff auf den Downloadbereich!


    Geschützter Bereich - Bedanke dich beim Poster, um den Bereich sehen zu können
    Hier erfährst Du wie Du Dich bedanken kannst oder werde jetzt Premium Mitglied ab einer Spende von 5€ und erhalte sofortigen Zugriff auf den Downloadbereich!



    Spoiler
    Insanity

    Ihr seht nur Oboom als Mirror, obwohl Uploaded bzw. Share-Online angegeben ist?
    [Links sind nur für registrierte und aktivierte Nutzer sichtbar. Klicke hier um dich zu registrieren.]

  2. 23 Benutzer sagen Danke:

    daikami (20. April 2015),dave_christoph (15. September 2015),downloader_1987 (22. July 2015),dragonking87 (16. October 2016),gdsatan (23. March 2014),hunterx20 (25. March 2014),Jukka (2. March 2015),Keldaan (26. March 2014),Leetroll (24. July 2014),LordBelakor (17. March 2015),Luchiasan (10. October 2014),lucky_mer (13. November 2015),midnighter (15. January 2015),NASHb00n_inactive (15. December 2014),prinzvegeta (21. June 2015),SnowCat (24. March 2014),Sonicslash (7. June 2014),tompace (29. March 2014),Tsu (3. November 2015),Tsukihime (25. April 2014),xXBerserkerxx (29. March 2014),Zaisen (6. April 2014)

Lesezeichen

Berechtigungen

  • Neue Themen erstellen: Nein
  • Themen beantworten: Nein
  • Anhänge hochladen: Nein
  • Beiträge bearbeiten: Nein
  •  

1 2 3 4 5 6 7 8 9 10 11 12 13 14 15 16 17 18 19 20 21 22 23 24 25 26 27 28 29 30 31 32 33 34 35 36 37 38 39 40 41 42 43 44 45 46 47 48 49 50 51 52 53 54 55 56 57 58 59 60 61 62 63 64 65 66 67 68 69 70 71 72 73 74 75 76 77 78 79 80 81 82 83 84 85 86 87 88 89 90 91 92 93 94 95 96 97 98 99 100 101 102 103 104 105 106 107 108 109 110 111 112 113 114 115 116 117 118 119 120 121 122 123 124 125 126 127 128 129 130 131 132 133 134 135 136 137 138 139 140 141 142 143 144 145 146 147 148 149 150 151 152 153 154 155 156 157 158