Ergebnis 1 bis 2 von 2

Thema: Vampire Knight S1 + Guilty S2 [Ger-Jap-Dub][Ger-Sub][x264][DVDRip] - AST4u

Dieser Thread wurde noch nicht bewertet. Bewerte ihn doch, wenn er dir gefällt!
  1. #1
    United we Stand Avatar von 00Ryuji00
    Registriert seit
    Oct 2012
    Beiträge
    3.902
    Punkte
    100.092
    Errungenschaften:
    TomodachisGang LeaderHikikomoriTagger Amateur50000 Erfahrungspunkte

    Vampire Knight S1 + Guilty S2 [Ger-Jap-Dub][Ger-Sub][x264][DVDRip] - AST4u


    Vampire Knight

    ヴァンパイア騎士
    Vampire Kishi
    +
    Vampire Knight Guilty
    ヴァンパイア騎士 Guilty
    Vampire Knight 2
    Vampire Kishi 2



    Kurzbeschreibung:
    Zitat Zitat von AniSearch.com
    Yuukis früheste Erinnerung stammt von einer stürmischen Winternacht, in der sie von einem Vampir angegriffen und wiederum von einem anderen Vampir, Kaname Kuran, gerettet wurde. Zehn Jahre später ist Yuuki, die Adoptivtochter des Direktors der "Cross Academy", ein Guardian geworden. Sie sorgt dafür, dass niemand von der Day Class (Menschen) vom Geheimnis der Night Class (Vampire) erfährt. An ihrer Seite ist ihr Kindheitsfreund Zero Kiryuu, dessen Eltern von dem reinblütigen Vampir Shizuka Hiou getötet wurden.

    Dieses Zusammenleben sieht auf den ersten Blick schön und gut aus, doch haben wirklich alle Vampire auf ihre blutdürstige Seite verzichtet oder steckt mehr dahinter? Was wird aus Kanames Liebe zu Yuki?
    Spieldauer: 24min
    Genre: Liebesdrama
    Nebengenres: Action, Drama, Komödie, Mystery, Romanze, Weiblich
    Jahr: 2008
    Sprache: Deutsch, Japanisch
    Untertitel: Deutsch
    Größe pro Folge: ~ 350MB
    Episodenanzahl: 13/13 + 13/13
    Format: MKV
    Auflösung: 432p (16:9)
    Videocodec: x264
    Audiocodec: AC-3
    Releasegruppe: AST4u
    Hoster: Uploaded, Share-Online


    Note: Subdateien liegen seperat bei.


    MediaInfo
    Code:
    
    Format                                   : Matroska
    Format version                           : Version 1
    File size                                : 338 MiB
    Duration                                 : 23mn 52s
    Overall bit rate                         : 1 977 Kbps
    Encoded date                             : UTC 2011-10-13 20:55:53
    Writing application                      : VirtualDubMod 1.5.10.2 (build 2542/release)
    Writing library                          : libebml-0.7.5 & libmatroska-0.7.7
    
    Video
    ID                                       : 1
    Format                                   : AVC
    Format/Info                              : Advanced Video Codec
    Format profile                           : [email protected]
    Format settings, CABAC                   : Yes
    Format settings, ReFrames                : 2 frames
    Codec ID                                 : V_MS/VFW/FOURCC / H264
    Duration                                 : 23mn 52s
    Bit rate                                 : 1 590 Kbps
    Width                                    : 768 pixels
    Height                                   : 432 pixels
    Display aspect ratio                     : 16:9
    Frame rate mode                          : Constant
    Frame rate                               : 25.000 fps
    Color space                              : YUV
    Chroma subsampling                       : 4:2:0
    Bit depth                                : 8 bits
    Scan type                                : Progressive
    Bits/(Pixel*Frame)                       : 0.192
    Stream size                              : 265 MiB (79%)
    Writing library                          : x264 core 58 svn-736bm
    Encoding settings                        : cabac=1 / ref=1 / deblock=1:0:0 / analyse=0x1:0x131 / me=hex / subme=5 / brdo=0 / mixed_ref=0 / me_range=16 / chroma_me=1 / trellis=1 / 8x8dct=0 / cqm=0 / deadzone=21,11 / chroma_qp_offset=0 / threads=8 / nr=0 / decimate=1 / mbaff=0 / bframes=2 / b_pyramid=0 / b_adapt=1 / b_bias=0 / direct=1 / wpredb=1 / bime=0 / keyint=250 / keyint_min=25 / scenecut=40(pre) / rc=2pass / bitrate=1590 / ratetol=1.0 / rceq='blurCplx^(1-qComp)' / qcomp=0.60 / qpmin=10 / qpmax=51 / qpstep=4 / cplxblur=20.0 / qblur=0.5 / ip_ratio=1.40 / pb_ratio=1.30
    Language                                 : English
    Default                                  : Yes
    Forced                                   : No
    
    Audio #1
    ID                                       : 2
    Format                                   : AC-3
    Format/Info                              : Audio Coding 3
    Mode extension                           : CM (complete main)
    Format settings, Endianness              : Big
    Codec ID                                 : A_AC3
    Duration                                 : 23mn 52s
    Bit rate mode                            : Constant
    Bit rate                                 : 192 Kbps
    Channel count                            : 2 channels
    Channel positions                        : Front: L R
    Sampling rate                            : 48.0 KHz
    Bit depth                                : 16 bits
    Compression mode                         : Lossy
    Stream size                              : 32.8 MiB (10%)
    Language                                 : English
    Default                                  : Yes
    Forced                                   : No
    
    Audio #2
    ID                                       : 3
    Format                                   : AC-3
    Format/Info                              : Audio Coding 3
    Mode extension                           : CM (complete main)
    Format settings, Endianness              : Big
    Codec ID                                 : A_AC3
    Duration                                 : 23mn 52s
    Bit rate mode                            : Constant
    Bit rate                                 : 192 Kbps
    Channel count                            : 2 channels
    Channel positions                        : Front: L R
    Sampling rate                            : 48.0 KHz
    Bit depth                                : 16 bits
    Compression mode                         : Lossy
    Stream size                              : 32.8 MiB (10%)
    Language                                 : English
    Default                                  : No
    Forced                                   : No
    
    Menu
    00:00:00.000                             : Ch. 01 @ 00:00:00
    00:02:35.760                             : Ch. 02 @ 00:02:35
    00:12:02.640                             : Ch. 03 @ 00:12:02
    00:22:17.520                             : Ch. 04 @ 00:22:17
    




    Geschützter Bereich - Bedanke dich beim Poster, um den Bereich sehen zu können
    Hier erfährst Du wie Du Dich bedanken kannst oder werde jetzt Premium Mitglied ab einer Spende von 5€ und erhalte sofortigen Zugriff auf den Downloadbereich!


    [Links sind nur für registrierte und aktivierte Nutzer sichtbar. Klicke hier um dich zu registrieren.]
    !!!Alle Anliegen bezüglich Uploads werden nur mit direktem Threadlink zum Angebot bearbeitet!!!

    Re-Uploadanfragen nur per PN - Ihr könnt mir auch Listen schicken

    Re-Uploads folgen nach Anfrage meist am Wochenende

    [Links sind nur für registrierte und aktivierte Nutzer sichtbar. Klicke hier um dich zu registrieren.] | [Links sind nur für registrierte und aktivierte Nutzer sichtbar. Klicke hier um dich zu registrieren.] | >[Links sind nur für registrierte und aktivierte Nutzer sichtbar. Klicke hier um dich zu registrieren.]<
    [Links sind nur für registrierte und aktivierte Nutzer sichtbar. Klicke hier um dich zu registrieren.]

  2. 75 Benutzer sagen Danke:

    Anzeigen

    Akio (31. October 2015),alecander (12. September 2015),Alecith (27. August 2015),Aluaran (24. August 2015),Anvandya (18. October 2015),Asturaetus (3. September 2016),Asuka Langley (1. September 2015),atilla (22. October 2015),Badrap_90 (5. June 2016),Black Lotus (24. July 2016),Bombur (8. May 2016),brunsdumm (26. July 2016),Buttercups (5. May 2016),carollatranny (20. May 2016),chopper23 (26. July 2016),ChriisP (9. November 2015),ChristianLake (21. August 2015),CrmnlBT (18. March 2016),Cy_Baer (14. April 2016),Demon (12. September 2015),donma (16. December 2015),egon1212 (2. August 2016),eraz (18. April 2016),Gatti1983 (2. July 2016),Genshirou (8. November 2015),Goldwipf (14. April 2016),Gold_93 (2. February 2016),hunter4320 (26. July 2016),Jack (2. February 2016),janniluk (1. October 2016),KawaiiCookie (17. November 2015),keku (29. August 2015),KeXiuS (15. September 2015),Kosuda-kun (8. February 2016),krasserGaul (21. August 2015),Kupan (9. December 2015),KuraikoSayo (29. October 2015),Larsinho (26. July 2016),Latyr (14. December 2015),Ley0304 (24. August 2015),louizz10 (16. October 2015),lucky_mer (8. November 2015),Magikarp (3. November 2016),marco.xf (31. July 2016),marcoj90 (2. August 2016),memories88 (26. July 2016),midnighter (22. August 2015),Nanashi (16. October 2015),Natsuu (6. November 2015),Nesal (25. September 2015),Newz2014 (17. May 2016),Nexus777 (31. August 2015),Neyzu (19. April 2016),noizmaker (23. November 2015),norby (21. August 2015),numbke (5. August 2016),Radesys (19. December 2015),Rheijaa (11. February 2016),Riyadoris (19. December 2015),Ronae (9. November 2015),RyuLelouch (1. December 2015),Sairenji (19. August 2016),san1n (23. November 2015),SatoshiKon (3. July 2016),Schumi2405 (23. December 2015),SpiderXL (23. October 2015),ssj3shad (30. August 2016),staxru (31. July 2016),Tarlysin (21. October 2015),Terrorhasii.x3 (30. July 2016),tigerhai (12. March 2016),Usagi91 (18. June 2016),Valious (10. January 2016),VatosLocos (22. August 2015),Windwusel (3. February 2016)

  3. #2
    United we Stand Avatar von 00Ryuji00
    Registriert seit
    Oct 2012
    Beiträge
    3.902
    Punkte
    100.092
    Errungenschaften:
    TomodachisGang LeaderHikikomoriTagger Amateur50000 Erfahrungspunkte

    AW: Vampire Knight S1 + Guilty S2 [Ger-Jap-Dub][Ger-Sub][x264][DVDRip] - AST4u

    Update: Dateien auf Wunsch wieder online.
    !!!Alle Anliegen bezüglich Uploads werden nur mit direktem Threadlink zum Angebot bearbeitet!!!

    Re-Uploadanfragen nur per PN - Ihr könnt mir auch Listen schicken

    Re-Uploads folgen nach Anfrage meist am Wochenende

    [Links sind nur für registrierte und aktivierte Nutzer sichtbar. Klicke hier um dich zu registrieren.] | [Links sind nur für registrierte und aktivierte Nutzer sichtbar. Klicke hier um dich zu registrieren.] | >[Links sind nur für registrierte und aktivierte Nutzer sichtbar. Klicke hier um dich zu registrieren.]<
    [Links sind nur für registrierte und aktivierte Nutzer sichtbar. Klicke hier um dich zu registrieren.]

  4. 2 Benutzer sagen Danke:

    janniluk (1. October 2016),Terrorhasii.x3 (30. July 2016)

Lesezeichen

Berechtigungen

  • Neue Themen erstellen: Nein
  • Themen beantworten: Nein
  • Anhänge hochladen: Nein
  • Beiträge bearbeiten: Nein
  •  

1 2 3 4 5 6 7 8 9 10 11 12 13 14 15 16 17 18 19 20 21 22 23 24 25 26 27 28 29 30 31 32 33 34 35 36 37 38 39 40 41 42 43 44 45 46 47 48 49 50 51 52 53 54 55 56 57 58 59 60 61 62 63 64 65 66 67 68 69 70 71 72 73 74 75 76 77 78 79 80 81 82 83 84 85 86 87 88 89 90 91 92 93 94 95 96 97 98 99 100 101 102 103 104 105 106 107 108 109 110 111 112 113 114 115 116 117 118 119 120 121 122 123 124 125 126 127 128 129 130 131 132 133 134 135 136 137 138 139 140 141 142 143 144 145 146 147 148 149 150 151 152 153 154 155 156 157 158