Ergebnis 1 bis 1 von 1

Thema: Versailles no Bara [Ger-Jap-Dub][720p/1080p-10Bit][BluRay] - gerdhanse

Dieser Thread wurde noch nicht bewertet. Bewerte ihn doch, wenn er dir gefällt!
  1. #1
    United we Stand Avatar von 00Ryuji00
    Registriert seit
    Oct 2012
    Beiträge
    3.902
    Punkte
    100.019
    Errungenschaften:
    TomodachisGang LeaderHikikomoriTagger Amateur50000 Erfahrungspunkte

    Versailles no Bara [Ger-Jap-Dub][720p/1080p-10Bit][BluRay] - gerdhanse

    Versailles no Bara
    ベルサイユのばら
    The Rose of Versailles
    Lady Oscar: Die Rose von Versailles
    Die Rosen von Versailles, Lady Oscar



    Kurzbeschreibung:
    Zitat Zitat von AniSearch.com
    Die Rosen von Versailles ist ein Anime, der in der Zeit vor der Französischen Revolution spielt. Oscar Francois de Jarjeyes ist eine Adlige aus Versailles, die wie ein Mann erzogen worden ist. Ihr zur Seite steht ihr Freund und Diener Andre. Als Kommandantin der königlichen Wache genießt sie ein hohes Ansehen und allerorts Bewunderung. Durch ihre Position wird sie zu einer Vertrauten von Marie Antoinette.

    Das Besondere an diesem Anime ist, dass er die Geschichte der Französischen Revolution aus Sicht einer Offizierin Frankreichs erzählt, die auch Zugang zu der königlichen Familie hat. Lady Oscar ist eine Frau des Volkes und sieht die Leiden der Menschen und versteht sie sehr gut, gerade auch weil sie ihrem Diener Andre sehr nahe steht. Gleichzeitig kann sie jedoch auch den Standpunkt und die Beweggründe der Königin und des hohen Adels zur Zeit der Revolution nachvollziehen. Man fühlt mit Lady Oscar und Marie Antoinette und bewundert die Königin für ihren Mut und dafür, dass sie letztendlich für ihre Fehler einsteht.
    Spieldauer: 25min
    Genre: Drama
    Nebengenres: Abenteuer
    Action, Drama, Romanze
    Jahr: 1979
    Sprache: Deutsch, Japanisch
    Untertitel: Deutsch (Forced)
    Größe pro Folge: ~ 263MB/1,23GB
    Episodenanzahl: 40/40
    Format: MKV
    Auflösung: 720p (16:9), 1080p (16:9)
    Videocodec: x264 (AVC)
    Audiocodec: AC-3
    Releasegruppe: gerdhanse
    Hoster: Uploaded, Share-Online

    Note: 720p ohne Jap-Dub

    MediaInfo
    720p
    Code:
    Format                                   : MPEG-4
    Format profile                           : Base Media / Version 2
    Codec ID                                 : mp42
    File size                                : 263 MiB
    Duration                                 : 24mn 17s
    Overall bit rate                         : 1 515 Kbps
    Encoded date                             : UTC 2015-07-15 09:20:03
    Tagged date                              : UTC 2015-07-15 09:20:19
    
    Video
    ID                                       : 1
    Format                                   : AVC
    Format/Info                              : Advanced Video Codec
    Format profile                           : [email protected]
    Format settings, CABAC                   : Yes
    Format settings, ReFrames                : 12 frames
    Codec ID                                 : avc1
    Codec ID/Info                            : Advanced Video Coding
    Duration                                 : 24mn 17s
    Bit rate                                 : 1 320 Kbps
    Width                                    : 960 pixels
    Height                                   : 720 pixels
    Display aspect ratio                     : 4:3
    Frame rate mode                          : Variable
    Frame rate                               : 23.976 fps
    Minimum frame rate                       : 23.000 fps
    Maximum frame rate                       : 23.981 fps
    Color space                              : YUV
    Chroma subsampling                       : 4:2:0
    Bit depth                                : 8 bits
    Scan type                                : Progressive
    Bits/(Pixel*Frame)                       : 0.080
    Stream size                              : 229 MiB (87%)
    Writing library                          : x264 core 129 r2245 bc13772
    Encoding settings                        : cabac=1 / ref=12 / deblock=1:1:1 / analyse=0x1:0x131 / me=umh / subme=9 / psy=1 / psy_rd=0.40:0.00 / mixed_ref=1 / me_range=16 / chroma_me=1 / trellis=2 / 8x8dct=0 / cqm=0 / deadzone=21,11 / fast_pskip=1 / chroma_qp_offset=-2 / threads=3 / lookahead_threads=1 / sliced_threads=0 / nr=0 / decimate=1 / interlaced=0 / bluray_compat=0 / constrained_intra=0 / bframes=5 / b_pyramid=2 / b_adapt=2 / b_bias=0 / direct=3 / weightb=1 / open_gop=0 / weightp=2 / keyint=240 / keyint_min=23 / scenecut=40 / intra_refresh=0 / rc=cqp / mbtree=0 / qp=23 / ip_ratio=1.40 / pb_ratio=1.30 / aq=0
    Encoded date                             : UTC 2015-07-15 09:20:03
    Tagged date                              : UTC 2015-07-15 09:20:19
    
    Audio
    ID                                       : 2
    Format                                   : AC-3
    Format/Info                              : Audio Coding 3
    Mode extension                           : CM (complete main)
    Format settings, Endianness              : Big
    Codec ID                                 : ac-3
    Duration                                 : 24mn 17s
    Bit rate mode                            : Constant
    Bit rate                                 : 192 Kbps
    Channel count                            : 2 channels
    Channel positions                        : Front: L R
    Sampling rate                            : 48.0 KHz
    Bit depth                                : 16 bits
    Compression mode                         : Lossy
    Stream size                              : 33.4 MiB (13%)
    Language                                 : German
    Encoded date                             : UTC 2015-07-15 09:20:03
    Tagged date                              : UTC 2015-07-15 09:20:19
    1080p 10-Bit
    Code:
    Format                                   : Matroska
    Format version                           : Version 4 / Version 2
    File size                                : 1.23 GiB
    Duration                                 : 24mn 17s
    Overall bit rate                         : 7 222 Kbps
    Movie name                               : Lady Oscar (Versailles no Bara) Ep01 Oscar! Das Schicksal der Rose (Das Duell) [BD-1080p][Hi10P][gerdhanse]
    Encoded date                             : UTC 2015-03-01 16:51:05
    Writing application                      : mkvmerge v6.9.1 ('Blue Panther') 32bit built on Apr 18 2014 18:15:44
    Writing library                          : libebml v1.3.0 + libmatroska v1.4.1
    Attachment                               : Yes / Yes / Yes / Yes / Yes / Yes
    
    Video
    ID                                       : 1
    Format                                   : AVC
    Format/Info                              : Advanced Video Codec
    Format profile                           : High [email protected]
    Format settings, CABAC                   : Yes
    Format settings, ReFrames                : 5 frames
    Codec ID                                 : V_MPEG4/ISO/AVC
    Duration                                 : 24mn 17s
    Bit rate                                 : 6 310 Kbps
    Width                                    : 1 440 pixels
    Height                                   : 1 080 pixels
    Display aspect ratio                     : 4:3
    Frame rate mode                          : Constant
    Frame rate                               : 23.976 fps
    Color space                              : YUV
    Chroma subsampling                       : 4:2:0
    Bit depth                                : 10 bits
    Scan type                                : Progressive
    Bits/(Pixel*Frame)                       : 0.169
    Stream size                              : 1.07 GiB (87%)
    Title                                    : Ep01 Oscar! Das Schicksal der Rose [gerdhanse]
    Writing library                          : x264 core 129 r2230 1cffe9f
    Encoding settings                        : cabac=1 / ref=6 / deblock=1:1:1 / analyse=0x3:0x133 / me=umh / subme=10 / psy=1 / psy_rd=0.40:0.00 / mixed_ref=1 / me_range=24 / chroma_me=1 / trellis=2 / 8x8dct=1 / cqm=1 / deadzone=21,11 / fast_pskip=1 / chroma_qp_offset=-2 / threads=3 / lookahead_threads=1 / sliced_threads=0 / nr=0 / decimate=1 / interlaced=0 / bluray_compat=1 / constrained_intra=0 / bframes=3 / b_pyramid=1 / b_adapt=2 / b_bias=0 / direct=3 / weightb=1 / open_gop=1 / weightp=1 / keyint=240 / keyint_min=1 / scenecut=40 / intra_refresh=0 / rc_lookahead=60 / rc=crf / mbtree=1 / crf=21.5 / qcomp=0.60 / qpmin=3 / qpmax=77 / qpstep=4 / ip_ratio=1.40 / aq=1:0.60
    Language                                 : Japanese
    Default                                  : Yes
    Forced                                   : No
    
    Audio #1
    ID                                       : 2
    Format                                   : AC-3
    Format/Info                              : Audio Coding 3
    Mode extension                           : CM (complete main)
    Format settings, Endianness              : Big
    Codec ID                                 : A_AC3
    Duration                                 : 24mn 17s
    Bit rate mode                            : Constant
    Bit rate                                 : 192 Kbps
    Channel count                            : 2 channels
    Channel positions                        : Front: L R
    Sampling rate                            : 48.0 KHz
    Bit depth                                : 16 bits
    Compression mode                         : Lossy
    Stream size                              : 33.4 MiB (3%)
    Title                                    : German (Ger-Song) [gerdhanse]
    Language                                 : German
    Default                                  : Yes
    Forced                                   : No
    
    Audio #2
    ID                                       : 3
    Format                                   : AC-3
    Format/Info                              : Audio Coding 3
    Mode extension                           : CM (complete main)
    Format settings, Endianness              : Big
    Codec ID                                 : A_AC3
    Duration                                 : 24mn 17s
    Bit rate mode                            : Constant
    Bit rate                                 : 192 Kbps
    Channel count                            : 2 channels
    Channel positions                        : Front: L R
    Sampling rate                            : 48.0 KHz
    Bit depth                                : 16 bits
    Compression mode                         : Lossy
    Stream size                              : 33.4 MiB (3%)
    Title                                    : German (Jap-Song) [gerdhanse]
    Language                                 : German
    Default                                  : No
    Forced                                   : No
    
    Audio #3
    ID                                       : 4
    Format                                   : AC-3
    Format/Info                              : Audio Coding 3
    Mode extension                           : CM (complete main)
    Format settings, Endianness              : Big
    Codec ID                                 : A_AC3
    Duration                                 : 24mn 17s
    Bit rate mode                            : Constant
    Bit rate                                 : 384 Kbps
    Channel count                            : 2 channels
    Channel positions                        : Front: L R
    Sampling rate                            : 48.0 KHz
    Bit depth                                : 16 bits
    Compression mode                         : Lossy
    Stream size                              : 66.7 MiB (5%)
    Title                                    : Japanisch [gerdhanse]
    Language                                 : Japanese
    Default                                  : No
    Forced                                   : No
    
    Text #1
    ID                                       : 5
    Format                                   : ASS
    Codec ID                                 : S_TEXT/ASS
    Codec ID/Info                            : Advanced Sub Station Alpha
    Compression mode                         : Lossless
    Title                                    : Title (Ger-Song) [gerdhanse]
    Language                                 : German
    Default                                  : Yes
    Forced                                   : No
    
    Text #2
    ID                                       : 6
    Format                                   : ASS
    Codec ID                                 : S_TEXT/ASS
    Codec ID/Info                            : Advanced Sub Station Alpha
    Compression mode                         : Lossless
    Title                                    : Title (Jap-Song) [gerdhanse]
    Language                                 : German
    Default                                  : No
    Forced                                   : No




    Geschützter Bereich - Bedanke dich beim Poster, um den Bereich sehen zu können
    Hier erfährst Du wie Du Dich bedanken kannst oder werde jetzt Premium Mitglied ab einer Spende von 5€ und erhalte sofortigen Zugriff auf den Downloadbereich!
    !!!Alle Anliegen bezüglich Uploads werden nur mit direktem Threadlink zum Angebot bearbeitet!!!

    Re-Uploadanfragen nur per PN - Ihr könnt mir auch Listen schicken

    Re-Uploads erfolgen meist innerhalb 24h, kann aber auch bis zu 7 Tage dauern

    [Links sind nur für registrierte und aktivierte Nutzer sichtbar. Klicke hier um dich zu registrieren.] | [Links sind nur für registrierte und aktivierte Nutzer sichtbar. Klicke hier um dich zu registrieren.] | >[Links sind nur für registrierte und aktivierte Nutzer sichtbar. Klicke hier um dich zu registrieren.]<
    [Links sind nur für registrierte und aktivierte Nutzer sichtbar. Klicke hier um dich zu registrieren.]

  2. 13 Benutzer sagen Danke:

    Asuka Langley (31. August 2016),brunsdumm (30. August 2016),chopper23 (30. August 2016),Conopas (3. September 2016),Cy_Baer (30. August 2016),knanime (11. September 2016),midnighter (5. September 2016),prinzvegeta (5. November 2016),Ronae (3. September 2016),Smery (29. October 2016),Sora (30. August 2016),Teramex (5. September 2016),Usagi91 (30. August 2016)

Lesezeichen

Berechtigungen

  • Neue Themen erstellen: Nein
  • Themen beantworten: Nein
  • Anhänge hochladen: Nein
  • Beiträge bearbeiten: Nein
  •  

1 2 3 4 5 6 7 8 9 10 11 12 13 14 15 16 17 18 19 20 21 22 23 24 25 26 27 28 29 30 31 32 33 34 35 36 37 38 39 40 41 42 43 44 45 46 47 48 49 50 51 52 53 54 55 56 57 58 59 60 61 62 63 64 65 66 67 68 69 70 71 72 73 74 75 76 77 78 79 80 81 82 83 84 85 86 87 88 89 90 91 92 93 94 95 96 97 98 99 100 101 102 103 104 105 106 107 108 109 110 111 112 113 114 115 116 117 118 119 120 121 122 123 124 125 126 127 128 129 130 131 132 133 134 135 136 137 138 139 140 141 142 143 144 145 146 147 148 149 150 151 152 153 154 155 156 157 158