Ergebnis 1 bis 1 von 1

Thema: Wedding Peach: Die Engel der Liebe + DX [Ger-Jap-Dub][Ger-Sub][544p][DVDRip]

Dieser Thread wurde noch nicht bewertet. Bewerte ihn doch, wenn er dir gefällt!
  1. #1
    United we Stand Avatar von 00Ryuji00
    Registriert seit
    Oct 2012
    Beiträge
    3.902
    Punkte
    100.092
    Errungenschaften:
    TomodachisGang LeaderHikikomoriTagger Amateur50000 Erfahrungspunkte

    Wedding Peach: Die Engel der Liebe + DX [Ger-Jap-Dub][Ger-Sub][544p][DVDRip]

    Ai Tenshi Densetsu Wedding Peach
    愛天使伝説 ウェディングピ
    Wedding Peach
    Wedding Peach: Die Engel der Liebe
    Legend of the Angel of Love



    Kurzbeschreibung:
    Eine Dämonin namens Satania fand vor etwa fünfzehn Jahren einen kleinen Durchgang zur Welt der Engel. Aus Neugierde schlüpfte sie hindurch und fand ein zauberhaftes Wunderland vor. Als sie von weitem einen Engel sah, verliebte sie sich sofort in ihn, doch als dessen Freundin erschien, brach es ihr das Herz.

    Die Engel warfen Satania aus ihrem Reich wieder hinaus und in der Dämonin erwachte ein glühender Hass. Sie übernahm die Herrschaft im Reich der Dämonen und griff dann das Reich der Engel an.
    Sprache: Deutsch, Japanisch (OVA nur Jap.)
    Untertitel: Deutsch
    Spieldauer: ~ 23min
    Größe: ~ 340MB, insgesamt 17,6GB
    Episodenanzahl: 51/51 + 4/4
    Format: .mkv
    Auflösung: 544p (736x544, 4:3)
    Codec: x264, AC-3
    Gruppe: AST4u
    Hoster: Uploaded, Share-Online

    Datei-Info.:
    Spoiler
    Code:
    Format                                   : Matroska
    Format version                           : Version 1
    File size                                : 319 MiB
    Duration                                 : 22mn 38s
    Overall bit rate                         : 1 967 Kbps
    Encoded date                             : UTC 2011-07-10 20:17:08
    Writing application                      : VirtualDubMod 1.5.10.2 (build 2542/release)
    Writing library                          : libebml-0.7.5 & libmatroska-0.7.7
    
    Video
    ID                                       : 1
    Format                                   : AVC
    Format/Info                              : Advanced Video Codec
    Format profile                           : [email protected]
    Format settings, CABAC                   : Yes
    Format settings, ReFrames                : 2 frames
    Codec ID                                 : V_MS/VFW/FOURCC / H264
    Duration                                 : 22mn 38s
    Bit rate                                 : 1 579 Kbps
    Width                                    : 736 pixels
    Height                                   : 544 pixels
    Display aspect ratio                     : 4:3
    Frame rate mode                          : Constant
    Frame rate                               : 25.000 fps
    Color space                              : YUV
    Chroma subsampling                       : 4:2:0
    Bit depth                                : 8 bits
    Scan type                                : Progressive
    Bits/(Pixel*Frame)                       : 0.158
    Stream size                              : 250 MiB (78%)
    Writing library                          : x264 core 58 svn-736bm
    Encoding settings                        : cabac=1 / ref=1 / deblock=1:0:0 / analyse=0x1:0x131 / me=hex / subme=5 / brdo=0 / mixed_ref=0 / me_range=16 / chroma_me=1 / trellis=1 / 8x8dct=0 / cqm=0 / deadzone=21,11 / chroma_qp_offset=0 / threads=8 / nr=0 / decimate=1 / mbaff=0 / bframes=2 / b_pyramid=0 / b_adapt=1 / b_bias=0 / direct=1 / wpredb=1 / bime=0 / keyint=250 / keyint_min=25 / scenecut=40(pre) / rc=2pass / bitrate=1579 / ratetol=1.0 / rceq='blurCplx^(1-qComp)' / qcomp=0.60 / qpmin=10 / qpmax=51 / qpstep=4 / cplxblur=20.0 / qblur=0.5 / ip_ratio=1.40 / pb_ratio=1.30
    Language                                 : English
    Default                                  : Yes
    Forced                                   : No
    
    Audio #1
    ID                                       : 2
    Format                                   : AC-3
    Format/Info                              : Audio Coding 3
    Mode extension                           : CM (complete main)
    Format settings, Endianness              : Big
    Codec ID                                 : A_AC3
    Duration                                 : 22mn 38s
    Bit rate mode                            : Constant
    Bit rate                                 : 192 Kbps
    Channel count                            : 2 channels
    Channel positions                        : Front: L R
    Sampling rate                            : 48.0 KHz
    Bit depth                                : 16 bits
    Compression mode                         : Lossy
    Stream size                              : 31.1 MiB (10%)
    Language                                 : English
    Default                                  : Yes
    Forced                                   : No
    
    Audio #2
    ID                                       : 3
    Format                                   : AC-3
    Format/Info                              : Audio Coding 3
    Mode extension                           : CM (complete main)
    Format settings, Endianness              : Big
    Codec ID                                 : A_AC3
    Duration                                 : 22mn 38s
    Bit rate mode                            : Constant
    Bit rate                                 : 192 Kbps
    Channel count                            : 2 channels
    Channel positions                        : Front: L R
    Sampling rate                            : 48.0 KHz
    Bit depth                                : 16 bits
    Compression mode                         : Lossy
    Stream size                              : 31.1 MiB (10%)
    Language                                 : English
    Default                                  : No
    Forced                                   : No
    
    Menu
    00:00:00.000                             : Ch. 01 @ 00:00:00
    00:01:29.120                             : Ch. 02 @ 00:01:29
    00:11:25.960                             : Ch. 03 @ 00:11:25
    00:21:29.280                             : Ch. 04 @ 00:21:29
    


    Geschützter Bereich - Bedanke dich beim Poster, um den Bereich sehen zu können
    Hier erfährst Du wie Du Dich bedanken kannst oder werde jetzt Premium Mitglied ab einer Spende von 5€ und erhalte sofortigen Zugriff auf den Downloadbereich!
    !!!Alle Anliegen bezüglich Uploads werden nur mit direktem Threadlink zum Angebot bearbeitet!!!

    Re-Uploadanfragen nur per PN - Ihr könnt mir auch Listen schicken

    Re-Uploads folgen nach Anfrage meist am Wochenende

    [Links sind nur für registrierte und aktivierte Nutzer sichtbar. Klicke hier um dich zu registrieren.] | [Links sind nur für registrierte und aktivierte Nutzer sichtbar. Klicke hier um dich zu registrieren.] | >[Links sind nur für registrierte und aktivierte Nutzer sichtbar. Klicke hier um dich zu registrieren.]<
    [Links sind nur für registrierte und aktivierte Nutzer sichtbar. Klicke hier um dich zu registrieren.]

  2. 48 Benutzer sagen Danke:

    0xDEADC0DE (31. October 2015),Akio (5. November 2015),Aluaran (6. July 2015),andyb90 (19. December 2015),Angel6500 (3. October 2015),Angel86 (6. July 2015),Asuka Langley (23. July 2015),beckiiyy1 (5. July 2015),Besen 48 (29. June 2016),Blackdragon1702 (28. September 2015),caclclo (25. October 2015),chopper23 (5. July 2015),Cloud9019 (5. July 2015),Cy_Baer (5. July 2015),Demon (7. August 2015),Djangorain (6. March 2016),dkomm (3. July 2016),dmc4life (9. November 2016),Ecel (8. July 2015),EngelEatos (7. April 2016),haltdiefresse (5. July 2015),holyhooker111 (21. March 2016),Kaede (26. July 2015),Manuk (16. May 2016),midnighter (7. July 2015),Miggenway (26. October 2015),Min4ko (11. February 2016),NanaNo7 (27. March 2016),Nanatzusaya (5. July 2015),noizmaker (25. November 2015),norby (5. July 2015),nuggl (16. December 2015),prinzvegeta (5. July 2015),rabmaster (23. August 2015),Schokette2908 (13. September 2015),Scorch (25. August 2015),sech11_inactive (5. July 2015),Seishin (28. July 2015),Shadow7525 (5. July 2015),skylier (5. July 2015),Tarlysin (5. July 2015),Tobi-idoT (24. January 2016),tohotono1987 (26. August 2015),tonytough (25. January 2016),Tsu (23. November 2015),Usagi91 (18. June 2016),Virgel (5. August 2015),xxkuschelxx (31. August 2015)

Lesezeichen

Berechtigungen

  • Neue Themen erstellen: Nein
  • Themen beantworten: Nein
  • Anhänge hochladen: Nein
  • Beiträge bearbeiten: Nein
  •  

1 2 3 4 5 6 7 8 9 10 11 12 13 14 15 16 17 18 19 20 21 22 23 24 25 26 27 28 29 30 31 32 33 34 35 36 37 38 39 40 41 42 43 44 45 46 47 48 49 50 51 52 53 54 55 56 57 58 59 60 61 62 63 64 65 66 67 68 69 70 71 72 73 74 75 76 77 78 79 80 81 82 83 84 85 86 87 88 89 90 91 92 93 94 95 96 97 98 99 100 101 102 103 104 105 106 107 108 109 110 111 112 113 114 115 116 117 118 119 120 121 122 123 124 125 126 127 128 129 130 131 132 133 134 135 136 137 138 139 140 141 142 143 144 145 146 147 148 149 150 151 152 153 154 155 156 157 158