Ergebnis 1 bis 1 von 1

Thema: 100 Byou Cinema: Robo to Shoujo (Kari) [Jap-Dub][Ger-Sub][WEB][480p] - RoFL

Dieser Thread wurde noch nicht bewertet. Bewerte ihn doch, wenn er dir gefällt!
  1. #1
    Treues Mitglied Avatar von Sairenji
    Registriert seit
    Aug 2013
    Beiträge
    299
    Punkte
    11.339
    Errungenschaften:
    TomodachisTagger Profi10000 ErfahrungspunkteHikikomori

    100 Byou Cinema: Robo to Shoujo (Kari) [Jap-Dub][Ger-Sub][WEB][480p] - RoFL






    Es geht um einen Roboter und ein Mädchen, welche zusammen auf einem Schrottplatz leben und sich hohe Ziele setzen, die sie allerdings nicht immer ganz so umsetzen können, wie sie es wollten. Während einigen Ereignissen innerhalb kurzer Zeit erfährt man mehr über die beiden.



    Titel: 100 Byou Cinema: Robo to Shoujo (Kari)
    Genre: Drama, Komödie
    Laufzeit: ~ 2 Min. | Episoden: 9

    [Links sind nur für registrierte und aktivierte Nutzer sichtbar. Klicke hier um dich zu registrieren.]



    100.Byou.Cinema.Robo.to.Shoujo.German.Subbed.WEBRi P.h264-RoFL | Größe: 271 MB | Parts: 9

    Auflösung: 640x368 | Sprache: Japanisch | Untertitel: Deutsch

    Video: WEBRiP | Video-Bitrate: 2532 Kbps | Audio: MP3



    Hoster: UL.net , SO.biz , OB.com , MC.net

    Geschützter Bereich - Bedanke dich beim Poster, um den Bereich sehen zu können
    Hier erfährst Du wie Du Dich bedanken kannst oder werde jetzt Premium Mitglied ab einer Spende von 5€ und erhalte sofortigen Zugriff auf den Downloadbereich!




    Media Info
    Code:
    General
    Format                      : MPEG-4
    Format profile              : Base Media
    Codec ID                    : isom
    File size                   : 22.2 MiB
    Duration                    : 1mn 39s
    Overall bit rate mode       : Variable
    Overall bit rate            : 1 878 Kbps
    Encoded date                : UTC 2011-12-14 19:27:09
    Tagged date                 : UTC 2011-12-14 19:27:09
    
    Video
    ID                          : 1
    Format                      : AVC
    Format/Info                 : Advanced Video Codec
    Format profile              : [email protected]
    Format settings, CABAC      : Yes
    Format settings, ReFrames   : 3 frames
    Codec ID                    : avc1
    Codec ID/Info               : Advanced Video Coding
    Duration                    : 1mn 39s
    Bit rate                    : 1 683 Kbps
    Nominal bit rate            : 2 532 Kbps
    Maximum bit rate            : 12.2 Mbps
    Width                       : 640 pixels
    Height                      : 368 pixels
    Display aspect ratio        : 1.739
    Frame rate mode             : Constant
    Frame rate                  : 23.976 fps
    Color space                 : YUV
    Chroma subsampling          : 4:2:0
    Bit depth                   : 8 bits
    Scan type                   : Progressive
    Bits/(Pixel*Frame)          : 0.298
    Stream size                 : 19.9 MiB (90%)
    Title                       : Imported with GPAC 0.4.6-DEV (build 1)
    Writing library             : x264 core 84 r1400kGIT 20fa784
    Encoding settings           : cabac=1 / ref=3 / deblock=1:0:0 / analyse=0x3:0x113 / me=hex / subme=7 / psy=1 / psy_rd=1.0:0.0 / mixed_ref=1 / me_range=16 / chroma_me=1 / trellis=0 / 8x8dct=1 / cqm=0 / deadzone=21,11 / fast_pskip=1 / chroma_qp_offset=-2 / threads=9 / sliced_threads=0 / nr=0 / decimate=1 / mbaff=0 / constrained_intra=0 / bframes=3 / b_pyramid=0 / b_adapt=1 / b_bias=0 / direct=1 / wpredb=1 / wpredp=2 / keyint=250 / keyint_min=25 / scenecut=40 / intra_refresh=0 / rc_lookahead=40 / rc=cbr / mbtree=1 / bitrate=2532 / ratetol=1.0 / qcomp=0.60 / qpmin=10 / qpmax=51 / qpstep=4 / vbv_maxrate=31250 / vbv_bufsize=31250 / ip_ratio=1.40 / aq=1:1.00 / pulldown=0 / nal_hrd=0
    Encoded date                : UTC 2011-12-14 19:27:09
    Tagged date                 : UTC 2011-12-14 19:27:09
    
    Audio
    ID                          : 2
    Format                      : AAC
    Format/Info                 : Advanced Audio Codec
    Format profile              : LC
    Codec ID                    : 40
    Duration                    : 1mn 38s
    Bit rate mode               : Variable
    Bit rate                    : 192 Kbps
    Maximum bit rate            : 228 Kbps
    Channel(s)                  : 2 channels
    Channel positions           : Front: L R
    Sampling rate               : 44.1 KHz
    Compression mode            : Lossy
    Stream size                 : 2.27 MiB (10%)
    Encoded date                : UTC 2011-12-14 19:27:09
    Tagged date                 : UTC 2011-12-14 19:27:09

    Geändert von Sairenji (3. January 2016 um 22:55 Uhr)
    Inaktiver Uploader!

    Alle Re-Upload-Anfragen öffentlich im [Links sind nur für registrierte und aktivierte Nutzer sichtbar. Klicke hier um dich zu registrieren.] posten!

  2. 5 Benutzer sagen Danke:

    Akio (4. March 2016),Arekusu (28. April 2016),midnighter (20. January 2016),prinzvegeta (4. January 2016),Tzi (5. January 2016)

Stichworte

Lesezeichen

Berechtigungen

  • Neue Themen erstellen: Nein
  • Themen beantworten: Nein
  • Anhänge hochladen: Nein
  • Beiträge bearbeiten: Nein
  •  

1 2 3 4 5 6 7 8 9 10 11 12 13 14 15 16 17 18 19 20 21 22 23 24 25 26 27 28 29 30 31 32 33 34 35 36 37 38 39 40 41 42 43 44 45 46 47 48 49 50 51 52 53 54 55 56 57 58 59 60 61 62 63 64 65 66 67 68 69 70 71 72 73 74 75 76 77 78 79 80 81 82 83 84 85 86 87 88 89 90 91 92 93 94 95 96 97 98 99 100 101 102 103 104 105 106 107 108 109 110 111 112 113 114 115 116 117 118 119 120 121 122 123 124 125 126 127 128 129 130 131 132 133 134 135 136 137 138 139 140 141 142 143 144 145 146 147 148 149 150 151 152 153 154 155 156 157 158