Ergebnis 1 bis 1 von 1

Thema: 11eyes + OVA [Jap-Dub][Ger-Sub][720p][HDTV]-Strawhat

Dieser Thread wurde noch nicht bewertet. Bewerte ihn doch, wenn er dir gefällt!
  1. #1
    United we Stand Avatar von 00Ryuji00
    Registriert seit
    Oct 2012
    Beiträge
    3.902
    Punkte
    99.823
    Errungenschaften:
    TomodachisGang LeaderHikikomoriTagger Amateur50000 Erfahrungspunkte

    11eyes + OVA [Jap-Dub][Ger-Sub][720p][HDTV]-Strawhat


    11eyes
    イレブンアイズ






    Kurzbeschreibung:
    Zitat Zitat von AniSearch.com
    Kakeru Satsuki hat den Tod seines letzten verbliebenen Familienmitgliedes, seiner älteren Schwester, fünf Jahre zuvor noch immer nicht überwunden. Eines Tages werden er, seine Kindheitsfreundin Yuka Minase und vier weitere Mitschüler aus der Kouryoukan Akademie plötzlich in die Welt Red Night transportiert, wo ein gigantischer schwarzer Mond am Firmament zu sehen ist. Sie können nun erst wieder nach Hause zurückkehren, wenn sie die sechs Black Knights*dieser alternativen Welt besiegen.


    Spieldauer: 25min
    Genre: Actiondrama
    Nebengenres: Action, Drama, Ecchi, Fantasy, Romanze
    Jahr: 2009
    Sprache: Japanisch
    Untertitel: Deutsch
    Größe pro Folge: ~354 MiB
    Episodenanzahl: 12/12 + 2/2
    Format: MKV
    Auflösung: 720p (16:9)
    Videocodec: x264 (AVC)
    Audiocodec: Vorbis
    Releasegruppe: Strawhat-Subs
    Hoster: Share-Online, Uploaded


    MediaInfo
    Code:
    
    Format                                   : Matroska
    Format version                           : Version 2
    File size                                : 354 MiB
    Duration                                 : 24mn 55s
    Overall bit rate mode                    : Variable
    Overall bit rate                         : 1 984 Kbps
    Movie name                               : [Strawhat] 11eyes 01 - Rote Nacht
    Encoded date                             : UTC 2010-03-01 16:23:32
    Writing application                      : mkvmerge v3.1.0 ('Happy up here')
    Writing library                          : libebml v0.7.8 + libmatroska v0.8.1
    Attachements                             : 38220-pegasus_regular.ttf / 43336-cajounltstd.otf
    
    Video
    ID                                       : 1
    Format                                   : AVC
    Format/Info                              : Advanced Video Codec
    Format profile                           : [email protected]
    Format settings, CABAC                   : Yes
    Format settings, ReFrames                : 16 frames
    Codec ID                                 : V_MPEG4/ISO/AVC
    Duration                                 : 24mn 55s
    Bit rate                                 : 1 870 Kbps
    Width                                    : 1 280 pixels
    Height                                   : 720 pixels
    Display aspect ratio                     : 16:9
    Frame rate mode                          : Constant
    Frame rate                               : 23.976 fps
    Color space                              : YUV
    Chroma subsampling                       : 4:2:0
    Bit depth                                : 8 bits
    Scan type                                : Progressive
    Bits/(Pixel*Frame)                       : 0.085
    Stream size                              : 327 MiB (92%)
    Writing library                          : x264 core 88 r1471 1144615
    Encoding settings                        : cabac=1 / ref=16 / deblock=1:1:1 / analyse=0x3:0x133 / me=umh / subme=10 / psy=1 / psy_rd=1.00:0.00 / mixed_ref=1 / me_range=24 / chroma_me=1 / trellis=2 / 8x8dct=1 / cqm=0 / deadzone=21,11 / fast_pskip=0 / chroma_qp_offset=-2 / threads=8 / sliced_threads=0 / nr=0 / decimate=1 / mbaff=0 / constrained_intra=0 / bframes=16 / b_pyramid=2 / b_adapt=2 / b_bias=0 / direct=3 / wpredb=1 / wpredp=2 / keyint=500 / keyint_min=24 / scenecut=40 / intra_refresh=0 / rc_lookahead=60 / rc=2pass / mbtree=1 / bitrate=1870 / ratetol=1.0 / qcomp=0.60 / qpmin=10 / qpmax=38 / qpstep=4 / cplxblur=20.0 / qblur=0.5 / ip_ratio=1.40 / aq=2:1.00
    Default                                  : No
    Forced                                   : No
    
    Audio
    ID                                       : 2
    Format                                   : Vorbis
    Format settings, Floor                   : 1
    Codec ID                                 : A_VORBIS
    Duration                                 : 24mn 55s
    Bit rate mode                            : Variable
    Bit rate                                 : 112 Kbps
    Channel(s)                               : 2 channels
    Sampling rate                            : 48.0 KHz
    Compression mode                         : Lossy
    Stream size                              : 20.0 MiB (6%)
    Writing library                          : libVorbis 20090709 (UTC 2009-07-09)
    Language                                 : Japanese
    Default                                  : Yes
    Forced                                   : No
    
    Text
    ID                                       : 3
    Format                                   : ASS
    Codec ID                                 : S_TEXT/ASS
    Codec ID/Info                            : Advanced Sub Station Alpha
    Compression mode                         : Lossless
    Language                                 : German
    Default                                  : Yes
    Forced                                   : No
    
    Menu
    00:00:55.094                             : de:Opening
    00:02:25.056                             : de:Rote Nacht
    00:22:56.444                             : de:Ending
    00:24:25.488                             : de:Vorschau
    
    




    Geschützter Bereich - Bedanke dich beim Poster, um den Bereich sehen zu können
    Hier erfährst Du wie Du Dich bedanken kannst oder werde jetzt Premium Mitglied ab einer Spende von 5€ und erhalte sofortigen Zugriff auf den Downloadbereich!

    [Links sind nur für registrierte und aktivierte Nutzer sichtbar. Klicke hier um dich zu registrieren.]
    !!!Alle Anliegen bezüglich Uploads werden nur mit direktem Threadlink zum Angebot bearbeitet!!!

    Re-Uploadanfragen nur per PN - Ihr könnt mir auch Listen schicken

    Re-Uploads erfolgen meist innerhalb 24h, kann aber auch bis zu 7 Tage dauern

    [Links sind nur für registrierte und aktivierte Nutzer sichtbar. Klicke hier um dich zu registrieren.] | [Links sind nur für registrierte und aktivierte Nutzer sichtbar. Klicke hier um dich zu registrieren.] | >[Links sind nur für registrierte und aktivierte Nutzer sichtbar. Klicke hier um dich zu registrieren.]<
    [Links sind nur für registrierte und aktivierte Nutzer sichtbar. Klicke hier um dich zu registrieren.]

  2. 11 Benutzer sagen Danke:

    Asuka Langley (6. May 2016),Axel87 (21. May 2016),Hiruja (7. September 2016),Kradus (10. May 2016),Multiking (13. May 2016),norby (22. May 2016),Patorikku-kun (7. May 2016),Sandy7580 (9. May 2016),Skully_88 (22. May 2016),tigerhai (4. May 2016),xhellsingx (24. June 2016)

Lesezeichen

Berechtigungen

  • Neue Themen erstellen: Nein
  • Themen beantworten: Nein
  • Anhänge hochladen: Nein
  • Beiträge bearbeiten: Nein
  •  

1 2 3 4 5 6 7 8 9 10 11 12 13 14 15 16 17 18 19 20 21 22 23 24 25 26 27 28 29 30 31 32 33 34 35 36 37 38 39 40 41 42 43 44 45 46 47 48 49 50 51 52 53 54 55 56 57 58 59 60 61 62 63 64 65 66 67 68 69 70 71 72 73 74 75 76 77 78 79 80 81 82 83 84 85 86 87 88 89 90 91 92 93 94 95 96 97 98 99 100 101 102 103 104 105 106 107 108 109 110 111 112 113 114 115 116 117 118 119 120 121 122 123 124 125 126 127 128 129 130 131 132 133 134 135 136 137 138 139 140 141 142 143 144 145 146 147 148 149 150 151 152 153 154 155 156 157 158