Ergebnis 1 bis 1 von 1

Thema: Aa! Megami-sama: Sorezore no Tsubasa + Special [Eng-Dub][Ger-Sub][1080p][BluRay]-nightsky

Dieser Thread wurde noch nicht bewertet. Bewerte ihn doch, wenn er dir gefällt!
  1. #1
    United we Stand Avatar von 00Ryuji00
    Registriert seit
    Oct 2012
    Beiträge
    3.902
    Punkte
    100.019
    Errungenschaften:
    TomodachisGang LeaderHikikomoriTagger Amateur50000 Erfahrungspunkte

    Aa! Megami-sama: Sorezore no Tsubasa + Special [Eng-Dub][Ger-Sub][1080p][BluRay]-nightsky


    Aa! Megami-sama: Sorezore no Tsubasa
    ああっ女神さまっ 第二期
    Ah! My Goddess: Flights of Fancy






    Kurzbeschreibung:
    Zitat Zitat von AniSearch.com
    Ein Jahr ist es nun her, dass der Vertrag zwischen Belldandy und Keiichi geschlossen wurde. Als Konsequenz der Ereignisse um den "Lord Of Terror" ist Yggdrasil stark in Mitleidenschaft gezogen worden - und unter den beschädigten Daten befindet sich auch das Protokoll des Vertrages...


    Spieldauer: 24min
    Genre: Romantische Komödie
    Nebengenres: Drama, Fantasy, Komödie, Romanze, Scifi
    Jahr: 2006
    Sprache: Englisch
    Untertitel: Deutsch
    Größe pro Folge: ~1.23 GiB
    Episodenanzahl: 22/22 + 2/2
    Format: MP4
    Auflösung: 1080p (16:9)
    Videocodec: x264 (AVC)
    Audiocodec: AAC
    Releasegruppe: nightsky
    Hoster: Share-Online, Uploaded


    MediaInfo
    Code:
    
    Format                                   : MPEG-4
    Format profile                           : Base Media / Version 2
    Codec ID                                 : mp42
    File size                                : 1.23 GiB
    Duration                                 : 24mn 10s
    Overall bit rate                         : 7 257 Kbps
    Encoded date                             : UTC 2015-11-21 21:50:49
    Tagged date                              : UTC 2015-11-21 21:50:49
    
    Video
    ID                                       : 1
    Format                                   : AVC
    Format/Info                              : Advanced Video Codec
    Format profile                           : [email protected]
    Format settings, CABAC                   : No
    Format settings, ReFrames                : 2 frames
    Format settings, GOP                     : M=1, N=30
    Codec ID                                 : avc1
    Codec ID/Info                            : Advanced Video Coding
    Duration                                 : 24mn 10s
    Source duration                          : 24mn 10s
    Bit rate                                 : 7 058 Kbps
    Width                                    : 1 920 pixels
    Height                                   : 1 080 pixels
    Display aspect ratio                     : 16:9
    Frame rate mode                          : Constant
    Frame rate                               : 29.970 fps
    Color space                              : YUV
    Chroma subsampling                       : 4:2:0
    Bit depth                                : 8 bits
    Scan type                                : Progressive
    Bits/(Pixel*Frame)                       : 0.114
    Stream size                              : 1.19 GiB (97%)
    Source stream size                       : 1.19 GiB (97%)
    Encoded date                             : UTC 2015-11-21 21:50:49
    Tagged date                              : UTC 2015-11-21 21:50:49
    mdhd_Duration                            : 1450716
    
    Audio
    ID                                       : 2
    Format                                   : AAC
    Format/Info                              : Advanced Audio Codec
    Format profile                           : LC
    Codec ID                                 : 40
    Duration                                 : 24mn 10s
    Bit rate mode                            : Constant
    Bit rate                                 : 192 Kbps
    Channel(s)                               : 2 channels
    Channel positions                        : Front: L R
    Sampling rate                            : 48.0 KHz
    Compression mode                         : Lossy
    Stream size                              : 33.9 MiB (3%)
    Encoded date                             : UTC 2015-11-21 21:50:49
    Tagged date                              : UTC 2015-11-21 21:50:49
    mdhd_Duration                            : 1450731
    
    




    Geschützter Bereich - Bedanke dich beim Poster, um den Bereich sehen zu können
    Hier erfährst Du wie Du Dich bedanken kannst oder werde jetzt Premium Mitglied ab einer Spende von 5€ und erhalte sofortigen Zugriff auf den Downloadbereich!

    [Links sind nur für registrierte und aktivierte Nutzer sichtbar. Klicke hier um dich zu registrieren.]
    !!!Alle Anliegen bezüglich Uploads werden nur mit direktem Threadlink zum Angebot bearbeitet!!!

    Re-Uploadanfragen nur per PN - Ihr könnt mir auch Listen schicken

    Re-Uploads erfolgen meist innerhalb 24h, kann aber auch bis zu 7 Tage dauern

    [Links sind nur für registrierte und aktivierte Nutzer sichtbar. Klicke hier um dich zu registrieren.] | [Links sind nur für registrierte und aktivierte Nutzer sichtbar. Klicke hier um dich zu registrieren.] | >[Links sind nur für registrierte und aktivierte Nutzer sichtbar. Klicke hier um dich zu registrieren.]<
    [Links sind nur für registrierte und aktivierte Nutzer sichtbar. Klicke hier um dich zu registrieren.]

  2. 9 Benutzer sagen Danke:

    Aluaran (4. May 2016),Asuka Langley (6. May 2016),DetektivConanDE (13. May 2016),fellmer (9. June 2016),Kaffee333 (24. September 2016),memories88 (9. July 2016),Ronae (20. July 2016),tigerhai (4. May 2016),xhellsingx (20. May 2016)

Lesezeichen

Berechtigungen

  • Neue Themen erstellen: Nein
  • Themen beantworten: Nein
  • Anhänge hochladen: Nein
  • Beiträge bearbeiten: Nein
  •  

1 2 3 4 5 6 7 8 9 10 11 12 13 14 15 16 17 18 19 20 21 22 23 24 25 26 27 28 29 30 31 32 33 34 35 36 37 38 39 40 41 42 43 44 45 46 47 48 49 50 51 52 53 54 55 56 57 58 59 60 61 62 63 64 65 66 67 68 69 70 71 72 73 74 75 76 77 78 79 80 81 82 83 84 85 86 87 88 89 90 91 92 93 94 95 96 97 98 99 100 101 102 103 104 105 106 107 108 109 110 111 112 113 114 115 116 117 118 119 120 121 122 123 124 125 126 127 128 129 130 131 132 133 134 135 136 137 138 139 140 141 142 143 144 145 146 147 148 149 150 151 152 153 154 155 156 157 158