Ergebnis 1 bis 1 von 1

Thema: Acchi Kocchi [Jap-Dub][Ger-Sub][720p-10Bit][HDTV]

Dieser Thread wurde noch nicht bewertet. Bewerte ihn doch, wenn er dir gefällt!
  1. #1
    United we Stand Avatar von 00Ryuji00
    Registriert seit
    Oct 2012
    Beiträge
    3.902
    Punkte
    99.823
    Errungenschaften:
    TomodachisGang LeaderHikikomoriTagger Amateur50000 Erfahrungspunkte

    Acchi Kocchi [Jap-Dub][Ger-Sub][720p-10Bit][HDTV]

    Acchi Kocchi
    あっちこっち
    Place to Place






    Kurzbeschreibung:
    Acchi Kocchi erzählt über den alltäglichen Wahnsinn der fünf Schulkameraden: Tsumiki, ein auf dem ersten Blick kleines und zurückhaltendes Mädchen, das aber manchmal ihre Emotionen nicht so ganz wie sie es möchte nach Außen tragen bzw. zurückhalten kann; Io ein Brille tragender und cooler Alleskönner, der alle Mädchennasen zum bluten bringt; Hime, das liebe, höfliche und gutherzige Mädchen der Gruppe; Mayoi, die Lustige im Laborkittel, deren Kopf leider mit zu viel Wahnsinn und Verrücktem vollgestopft ist und Sakaki, der Witzbold, der von seiner Art her am besten zu Mayoi passt.


    Sprache: Japanisch
    Untertitel: Deutsch
    Episodenanzahl: 12/12
    Format: .mp4
    Auflösung: 720p 10-Bit (16:9)
    Codec: x264
    Gruppe: Chinurarete-Subs
    Hoster: Share-Online ; Uploaded


    Datei Info:
    Spoiler

    Code:
    
    
    Format                                   : MPEG-4
    Format profile                           : Base Media
    Codec ID                                 : isom
    File size                                : 316 MiB
    Duration                                 : 24mn 29s
    Overall bit rate mode                    : Variable
    Overall bit rate                         : 1 802 Kbps
    Encoded date                             : UTC 2012-04-18 08:06:39
    Tagged date                              : UTC 2012-04-18 08:06:39
    
    Video
    ID                                       : 1
    Format                                   : AVC
    Format/Info                              : Advanced Video Codec
    Format profile                           : High [email protected]
    Format settings, CABAC                   : Yes
    Format settings, ReFrames                : 4 frames
    Codec ID                                 : avc1
    Codec ID/Info                            : Advanced Video Coding
    Duration                                 : 24mn 29s
    Bit rate                                 : 1 542 Kbps
    Maximum bit rate                         : 7 927 Kbps
    Width                                    : 1 280 pixels
    Height                                   : 720 pixels
    Display aspect ratio                     : 16:9
    Frame rate mode                          : Constant
    Frame rate                               : 23.976 fps
    Color space                              : YUV
    Chroma subsampling                       : 4:2:0
    Bit depth                                : 10 bits
    Scan type                                : Progressive
    Bits/(Pixel*Frame)                       : 0.070
    Stream size                              : 270 MiB (86%)
    Writing library                          : x264 core 120 r2120 0c7dab9
    Encoding settings                        : cabac=1 / ref=3 / deblock=1:0:0 / analyse=0x3:0x113 / me=hex / subme=7 / psy=1 / psy_rd=1.00:0.00 / mixed_ref=1 / me_range=16 / chroma_me=1 / trellis=1 / 8x8dct=1 / cqm=0 / deadzone=21,11 / fast_pskip=1 / chroma_qp_offset=-2 / threads=6 / sliced_threads=0 / nr=0 / decimate=1 / interlaced=0 / bluray_compat=0 / constrained_intra=0 / bframes=3 / b_pyramid=2 / b_adapt=1 / b_bias=0 / direct=1 / weightb=1 / open_gop=0 / weightp=2 / keyint=250 / keyint_min=23 / scenecut=40 / intra_refresh=0 / rc_lookahead=40 / rc=2pass / mbtree=1 / bitrate=1542 / ratetol=1.0 / qcomp=0.60 / qpmin=0 / qpmax=81 / qpstep=4 / cplxblur=20.0 / qblur=0.5 / ip_ratio=1.40 / aq=1:1.00
    Encoded date                             : UTC 2012-04-18 08:06:39
    Tagged date                              : UTC 2012-04-18 08:06:42
    
    Audio
    ID                                       : 2
    Format                                   : AAC
    Format/Info                              : Advanced Audio Codec
    Format profile                           : LC
    Codec ID                                 : 40
    Duration                                 : 24mn 29s
    Bit rate mode                            : Variable
    Bit rate                                 : 256 Kbps
    Maximum bit rate                         : 325 Kbps
    Channel count                            : 2 channels
    Channel positions                        : Front: L R
    Sampling rate                            : 48.0 KHz
    Compression mode                         : Lossy
    Stream size                              : 44.8 MiB (14%)
    Encoded date                             : UTC 2012-04-18 08:06:41
    Tagged date                              : UTC 2012-04-18 08:06:42
    
    





    Geschützter Bereich - Bedanke dich beim Poster, um den Bereich sehen zu können
    Hier erfährst Du wie Du Dich bedanken kannst oder werde jetzt Premium Mitglied ab einer Spende von 5€ und erhalte sofortigen Zugriff auf den Downloadbereich!

    !!!Alle Anliegen bezüglich Uploads werden nur mit direktem Threadlink zum Angebot bearbeitet!!!

    Re-Uploadanfragen nur per PN - Ihr könnt mir auch Listen schicken

    Re-Uploads erfolgen meist innerhalb 24h, kann aber auch bis zu 7 Tage dauern

    [Links sind nur für registrierte und aktivierte Nutzer sichtbar. Klicke hier um dich zu registrieren.] | [Links sind nur für registrierte und aktivierte Nutzer sichtbar. Klicke hier um dich zu registrieren.] | >[Links sind nur für registrierte und aktivierte Nutzer sichtbar. Klicke hier um dich zu registrieren.]<
    [Links sind nur für registrierte und aktivierte Nutzer sichtbar. Klicke hier um dich zu registrieren.]

  2. 20 Benutzer sagen Danke:

    Besen 48 (24. November 2016),Bloodywaffe (16. February 2016),chopper23 (22. November 2016),Dipack (13. September 2015),doublegf (19. September 2015),Drachengott (30. July 2015),Geisterhaendler (28. August 2015),haltdiefresse (10. November 2015),Hollow-Ichigo (16. August 2015),Jeycop (16. August 2015),midnighter (1. August 2015),Missingz0r (29. October 2015),phtop (1. October 2015),Pipsargen (30. March 2016),prinzvegeta (10. August 2015),Reaper1 (24. November 2016),Skue (20. October 2016),Smasher25 (11. September 2015),SONNYxq (29. July 2015),Sylux (8. September 2015)

Lesezeichen

Berechtigungen

  • Neue Themen erstellen: Nein
  • Themen beantworten: Nein
  • Anhänge hochladen: Nein
  • Beiträge bearbeiten: Nein
  •  

1 2 3 4 5 6 7 8 9 10 11 12 13 14 15 16 17 18 19 20 21 22 23 24 25 26 27 28 29 30 31 32 33 34 35 36 37 38 39 40 41 42 43 44 45 46 47 48 49 50 51 52 53 54 55 56 57 58 59 60 61 62 63 64 65 66 67 68 69 70 71 72 73 74 75 76 77 78 79 80 81 82 83 84 85 86 87 88 89 90 91 92 93 94 95 96 97 98 99 100 101 102 103 104 105 106 107 108 109 110 111 112 113 114 115 116 117 118 119 120 121 122 123 124 125 126 127 128 129 130 131 132 133 134 135 136 137 138 139 140 141 142 143 144 145 146 147 148 149 150 151 152 153 154 155 156 157 158