Ergebnis 1 bis 1 von 1

Thema: Aikatsu! Idol Katsudou! [Jap-Dub][Ger-Sub][720p][HDTV]-MGS

Dieser Thread wurde noch nicht bewertet. Bewerte ihn doch, wenn er dir gefällt!
  1. #1
    United we Stand Avatar von 00Ryuji00
    Registriert seit
    Oct 2012
    Beiträge
    3.902
    Punkte
    99.823
    Errungenschaften:
    TomodachisGang LeaderHikikomoriTagger Amateur50000 Erfahrungspunkte

    Aikatsu! Idol Katsudou! [Jap-Dub][Ger-Sub][720p][HDTV]-MGS


    Aikatsu! Idol Katsudou!
    アイカツ! アイドルカツドウ!
    Idol ga Tsudou!
    Aikatsu! Idol Activities!






    Kurzbeschreibung:
    Zitat Zitat von AniSearch.com
    Ichigo Hoshimiya ist ein ganz normales Mädchen. Doch als ihre beste Freundin Aoi sie zu einer Superstartrainingsakademie einlädt, Starlight Acadamy genannt, verändert sich plötzlich ihr ganzes Leben. Sie lernt neue Freunde kennen aber auch Rivalinnen und erkennt, was es heißt ein Superstar zu sein. Die Aikatsu Karten, die sie neu erwerben muss, helfen ihr dabei das perfekte Outfit für ein Konzert anzuziehen.


    Spieldauer: 24min
    Genre: Ganbatte
    Nebengenres: Alltagsleben, Ganbatte, Weiblich
    Jahr: 2012
    Sprache: Japanisch
    Untertitel: Deutsch
    Größe pro Folge: ~245 MiB
    Episodenanzahl: 152/200
    Format: MP4
    Auflösung: 720p (16:9)
    Videocodec: x264 (AVC)
    Audiocodec: AAC
    Releasegruppe: MGS
    Hoster: Share-Online, Uploaded


    Note: Die Fansubgruppe hat den Anime in 4 Teile unterteilt.


    MediaInfo
    Code:
    
    Format                                   : MPEG-4
    Format profile                           : Base Media
    Codec ID                                 : isom
    File size                                : 245 MiB
    Duration                                 : 24mn 30s
    Overall bit rate mode                    : Variable
    Overall bit rate                         : 1 400 Kbps
    Encoded date                             : UTC 2012-10-29 14:28:38
    Tagged date                              : UTC 2012-10-29 14:28:38
    
    Video
    ID                                       : 1
    Format                                   : AVC
    Format/Info                              : Advanced Video Codec
    Format profile                           : [email protected]
    Format settings, CABAC                   : Yes
    Format settings, ReFrames                : 8 frames
    Codec ID                                 : avc1
    Codec ID/Info                            : Advanced Video Coding
    Duration                                 : 24mn 30s
    Bit rate                                 : 1 269 Kbps
    Maximum bit rate                         : 7 532 Kbps
    Width                                    : 1 280 pixels
    Height                                   : 720 pixels
    Display aspect ratio                     : 16:9
    Frame rate mode                          : Constant
    Frame rate                               : 23.976 fps
    Color space                              : YUV
    Chroma subsampling                       : 4:2:0
    Bit depth                                : 8 bits
    Scan type                                : Progressive
    Bits/(Pixel*Frame)                       : 0.057
    Stream size                              : 222 MiB (91%)
    Writing library                          : x264 core 116 r2074 2641b9e
    Encoding settings                        : cabac=1 / ref=8 / deblock=1:0:0 / analyse=0x3:0x133 / me=umh / subme=7 / psy=1 / psy_rd=1.00:0.00 / mixed_ref=1 / me_range=16 / chroma_me=1 / trellis=2 / 8x8dct=1 / cqm=0 / deadzone=21,11 / fast_pskip=1 / chroma_qp_offset=-2 / threads=6 / sliced_threads=0 / nr=0 / decimate=1 / interlaced=0 / bluray_compat=0 / constrained_intra=0 / bframes=3 / b_pyramid=2 / b_adapt=1 / b_bias=0 / direct=1 / weightb=1 / open_gop=0 / weightp=2 / keyint=250 / keyint_min=23 / scenecut=40 / intra_refresh=0 / rc_lookahead=40 / rc=2pass / mbtree=1 / bitrate=1269 / ratetol=1.0 / qcomp=0.60 / qpmin=10 / qpmax=51 / qpstep=4 / cplxblur=20.0 / qblur=0.5 / ip_ratio=1.40 / aq=1:0.00
    Encoded date                             : UTC 2012-10-29 13:47:13
    Tagged date                              : UTC 2012-10-29 14:28:43
    
    Audio
    ID                                       : 2
    Format                                   : AAC
    Format/Info                              : Advanced Audio Codec
    Format profile                           : HE-AAC / LC
    Codec ID                                 : 40
    Duration                                 : 24mn 30s
    Bit rate mode                            : Variable
    Bit rate                                 : 128 Kbps
    Maximum bit rate                         : 150 Kbps
    Channel(s)                               : 2 channels
    Channel positions                        : Front: L R
    Sampling rate                            : 48.0 KHz / 24.0 KHz
    Compression mode                         : Lossy
    Stream size                              : 22.4 MiB (9%)
    Encoded date                             : UTC 2012-10-29 14:28:40
    Tagged date                              : UTC 2012-10-29 14:28:43
    
    






    Geschützter Bereich - Bedanke dich beim Poster, um den Bereich sehen zu können
    Hier erfährst Du wie Du Dich bedanken kannst oder werde jetzt Premium Mitglied ab einer Spende von 5€ und erhalte sofortigen Zugriff auf den Downloadbereich!



    [Links sind nur für registrierte und aktivierte Nutzer sichtbar. Klicke hier um dich zu registrieren.]
    Geändert von so1k (12. October 2016 um 20:26 Uhr)
    !!!Alle Anliegen bezüglich Uploads werden nur mit direktem Threadlink zum Angebot bearbeitet!!!

    Re-Uploadanfragen nur per PN - Ihr könnt mir auch Listen schicken

    Re-Uploads erfolgen meist innerhalb 24h, kann aber auch bis zu 7 Tage dauern

    [Links sind nur für registrierte und aktivierte Nutzer sichtbar. Klicke hier um dich zu registrieren.] | [Links sind nur für registrierte und aktivierte Nutzer sichtbar. Klicke hier um dich zu registrieren.] | >[Links sind nur für registrierte und aktivierte Nutzer sichtbar. Klicke hier um dich zu registrieren.]<
    [Links sind nur für registrierte und aktivierte Nutzer sichtbar. Klicke hier um dich zu registrieren.]

  2. 1 Benutzer sagt Danke:

    midnighter (17. January 2016)

Lesezeichen

Berechtigungen

  • Neue Themen erstellen: Nein
  • Themen beantworten: Nein
  • Anhänge hochladen: Nein
  • Beiträge bearbeiten: Nein
  •  

1 2 3 4 5 6 7 8 9 10 11 12 13 14 15 16 17 18 19 20 21 22 23 24 25 26 27 28 29 30 31 32 33 34 35 36 37 38 39 40 41 42 43 44 45 46 47 48 49 50 51 52 53 54 55 56 57 58 59 60 61 62 63 64 65 66 67 68 69 70 71 72 73 74 75 76 77 78 79 80 81 82 83 84 85 86 87 88 89 90 91 92 93 94 95 96 97 98 99 100 101 102 103 104 105 106 107 108 109 110 111 112 113 114 115 116 117 118 119 120 121 122 123 124 125 126 127 128 129 130 131 132 133 134 135 136 137 138 139 140 141 142 143 144 145 146 147 148 149 150 151 152 153 154 155 156 157 158