Ergebnis 1 bis 1 von 1

Thema: Ajimu Kaigan Monogatari [Jap-Dub][Ger-Sub][DVDRip]-MoE

Dieser Thread wurde noch nicht bewertet. Bewerte ihn doch, wenn er dir gefällt!
  1. #1
    United we Stand Avatar von 00Ryuji00
    Registriert seit
    Oct 2012
    Beiträge
    3.902
    Punkte
    99.823
    Errungenschaften:
    TomodachisGang LeaderHikikomoriTagger Amateur50000 Erfahrungspunkte

    Ajimu Kaigan Monogatari [Jap-Dub][Ger-Sub][DVDRip]-MoE


    Ajimu Kaigan Monogatari
    あじむ ~海岸物語~






    Kurzbeschreibung:
    Zitat Zitat von AniSearch.com
    Als der siebzehnjährige Nakaido Hirosuke eines Morgens auf seinem Weg zur Schule am Bahnhof ankommt, sieht er dort ein wunderschönes Mädchen, Ajimu Yasuna, in welches er sich auf der Stelle verliebt. Doch seine ersten Versuche sich ihr zu nähern, enden in einem Fiasko. Dennoch kommen die beiden einander näher und werden Freunde, ohne dass Hirosuke es wagen würde, ihr seine Gefühle zu gestehen - zumal er sich der ihren nicht sicher sein kann. Denn Yasuna hängt noch immer an ihrem Freund, der sie vor zwei Jahren verlassen hat. Doch dann macht ein anderes Mädchen den ersten Schritt auf Hirosuke zu...


    Spieldauer: 27min
    Genre: Romanze
    Nebengenres: Alltagsleben, Drama, Komödie, Romanze
    Jahr: 2001
    Sprache: Japanisch
    Untertitel: Deutsch
    Größe pro Folge: ~179 MiB
    Episodenanzahl: 4/4
    Format: AVI
    Auflösung: 480p (4:3)
    Videocodec: XviD (MPEG-4 Visual)
    Audiocodec: MPEG Audio
    Releasegruppe: MoE
    Hoster: Share-Online, Uploaded


    MediaInfo
    Code:
    
    Format                                   : AVI
    Format/Info                              : Audio Video Interleave
    File size                                : 179 MiB
    Duration                                 : 28mn 35s
    Overall bit rate                         : 876 Kbps
    Writing application                      : VirtualDubMod 1.5.10.2 (build 2540/release)
    Writing library                          : VirtualDubMod build 2540/release
    
    Video
    ID                                       : 0
    Format                                   : MPEG-4 Visual
    Format profile                           : Advanced [email protected]
    Format settings, BVOP                    : 2
    Format settings, QPel                    : No
    Format settings, GMC                     : No warppoints
    Format settings, Matrix                  : Default (H.263)
    Muxing mode                              : Packed bitstream
    Codec ID                                 : XVID
    Codec ID/Hint                            : XviD
    Duration                                 : 28mn 35s
    Bit rate                                 : 811 Kbps
    Width                                    : 640 pixels
    Height                                   : 480 pixels
    Display aspect ratio                     : 4:3
    Frame rate                               : 23.976 fps
    Color space                              : YUV
    Chroma subsampling                       : 4:2:0
    Bit depth                                : 8 bits
    Scan type                                : Progressive
    Compression mode                         : Lossy
    Bits/(Pixel*Frame)                       : 0.110
    Stream size                              : 166 MiB (93%)
    Writing library                          : XviD 1.2.0.dev47 (UTC 2006-11-01)
    
    Audio
    ID                                       : 1
    Format                                   : MPEG Audio
    Format version                           : Version 2
    Format profile                           : Layer 3
    Mode                                     : Joint stereo
    Mode extension                           : Intensity Stereo
    Codec ID                                 : 55
    Codec ID/Hint                            : MP3
    Duration                                 : 28mn 35s
    Bit rate mode                            : Constant
    Bit rate                                 : 56.0 Kbps
    Channel(s)                               : 2 channels
    Sampling rate                            : 24.0 KHz
    Compression mode                         : Lossy
    Stream size                              : 11.5 MiB (6%)
    Alignment                                : Split accross interleaves
    Interleave, duration                     : 42 ms (1.00 video frame)
    Interleave, preload duration             : 500 ms
    
    




    Geschützter Bereich - Bedanke dich beim Poster, um den Bereich sehen zu können
    Hier erfährst Du wie Du Dich bedanken kannst oder werde jetzt Premium Mitglied ab einer Spende von 5€ und erhalte sofortigen Zugriff auf den Downloadbereich!

    [Links sind nur für registrierte und aktivierte Nutzer sichtbar. Klicke hier um dich zu registrieren.]
    !!!Alle Anliegen bezüglich Uploads werden nur mit direktem Threadlink zum Angebot bearbeitet!!!

    Re-Uploadanfragen nur per PN - Ihr könnt mir auch Listen schicken

    Re-Uploads erfolgen meist innerhalb 24h, kann aber auch bis zu 7 Tage dauern

    [Links sind nur für registrierte und aktivierte Nutzer sichtbar. Klicke hier um dich zu registrieren.] | [Links sind nur für registrierte und aktivierte Nutzer sichtbar. Klicke hier um dich zu registrieren.] | >[Links sind nur für registrierte und aktivierte Nutzer sichtbar. Klicke hier um dich zu registrieren.]<
    [Links sind nur für registrierte und aktivierte Nutzer sichtbar. Klicke hier um dich zu registrieren.]

  2. 2 Benutzer sagen Danke:

    Aluaran (6. May 2016),Asuka Langley (6. May 2016)

Lesezeichen

Berechtigungen

  • Neue Themen erstellen: Nein
  • Themen beantworten: Nein
  • Anhänge hochladen: Nein
  • Beiträge bearbeiten: Nein
  •  

1 2 3 4 5 6 7 8 9 10 11 12 13 14 15 16 17 18 19 20 21 22 23 24 25 26 27 28 29 30 31 32 33 34 35 36 37 38 39 40 41 42 43 44 45 46 47 48 49 50 51 52 53 54 55 56 57 58 59 60 61 62 63 64 65 66 67 68 69 70 71 72 73 74 75 76 77 78 79 80 81 82 83 84 85 86 87 88 89 90 91 92 93 94 95 96 97 98 99 100 101 102 103 104 105 106 107 108 109 110 111 112 113 114 115 116 117 118 119 120 121 122 123 124 125 126 127 128 129 130 131 132 133 134 135 136 137 138 139 140 141 142 143 144 145 146 147 148 149 150 151 152 153 154 155 156 157 158