Ergebnis 1 bis 6 von 6

Thema: Akagami no Shirayuki-hime [Jap-Dub][Ger-Sub][720p-10Bit][BluRay] - Mirai-Fansubs

Dieser Thread wurde durchschnittlich mit 2 Sternen bewertet, wobei 1 Stern die schlechteste und 5 Sterne die beste Bewertung ist. Es haben insgesamt 1 Mitglieder eine Bewertung abgegeben.

  1. #1
    Uploader Avatar von Filbo11
    Registriert seit
    Jan 2015
    Beiträge
    931
    Punkte
    17.281
    Errungenschaften:
    TomodachisErste Gruppe1 Jahr registriertCreated Album picturesTagger First Class

    Akagami no Shirayuki-hime [Jap-Dub][Ger-Sub][720p-10Bit][BluRay] - Mirai-Fansubs

    Akagami no Shirayuki-hime
    赤髪の白雪姫
    Snow White with the Red Hair, Die rothaarige Schneeprinzessin
    Red-haired Princess Snow White, Akagami no Shirayukihime




    Beschreibung

    Shirayuki, ein junges Mädchen, wurde mit einzigartigem apfelrotem Haar geboren. Sie trifft einen berühmten, aber törichten Prinzen namens Raji, der sich sofort in Shirayuki verliebt und will, dass diese seine Konkubine wird. Shirayuki schneidet ihre Haare kürzer und flüchtet in das benachbarte Land. Als sie durch die Wälder streift, begegnet sie einem Jungen namens Zen, dessen Wunden sie heilt, der dann aber von einem für Shirayuki bestimmten Apfel vergiftet wird. Prinz Raji schickt unterdessen seine Handlager aus, um sich auf die Suche nach Shirayuki zu machen. Was wird wohl aus Shirayuki? Und was für eine Person ist Zen in Wirklichkeit?

    Format: mkv
    Dauer: ca. 24 min
    Größe: ca. 565 MB
    Sprache: Japanisch
    Untertitel: Deutsch
    Releaser: [Mirai-Fansubs]
    Hoster: Uploaded.net & Share-Online.biz
    kein PW


    Screenshots & Info

    Spoiler
    [Links sind nur für registrierte und aktivierte Nutzer sichtbar. Klicke hier um dich zu registrieren.]

    Code:
    General
    
    Complete name               : [Mirai-Fansubs] Akagami no Shirayukihime - 01v2 [BD][720p Hi444pp OPUS][F9143072].mkv
    Format                      : Matroska
    Format version              : Version 4 / Version 2
    File size                   : 566 MiB
    Duration                    : 24mn 10s
    Overall bit rate            : 3 274 Kbps
    Movie name                  : [Mirai-Fansubs] Akagami no Shirayukihime - 01 [BD][720p Hi444pp OPUS]
    Encoded date                : UTC 2016-03-23 19:19:18
    Writing application         : mkvmerge v8.9.0 ('Father Daughter') 64bit
    Writing library             : libebml v1.3.3 + libmatroska v1.4.4
    Attachments                 : Barkentina.otf / Fertigo.ttf
    
    Video
    ID                          : 1
    Format                      : AVC
    Format/Info                 : Advanced Video Codec
    Format profile              : High 4:4:4 [email protected]
    Format settings, CABAC      : Yes
    Format settings, ReFrames   : 16 frames
    Codec ID                    : V_MPEG4/ISO/AVC
    Duration                    : 24mn 10s
    Bit rate                    : 3 170 Kbps
    Width                       : 1 280 pixels
    Height                      : 720 pixels
    Display aspect ratio        : 16:9
    Frame rate mode             : Constant
    Frame rate                  : 23.976 (24000/1001) fps
    Color space                 : YUV
    Chroma subsampling          : 4:4:4
    Bit depth                   : 10 bits
    Scan type                   : Progressive
    Bits/(Pixel*Frame)          : 0.143
    Stream size                 : 548 MiB (97%)
    Title                       : Treffen ... und das sich färbende Schicksal
    Writing library             : x264 core 148 r2665+53 6629127 t_mod_Custom [[email protected] X86_64]
    Encoding settings           : cabac=1 / ref=16 / deblock=1:0:-1 / analyse=0x3:0x133 / me=umh / subme=11 / psy=1 / fade_compensate=0.70 / psy_rd=0.60:0.05 / mixed_ref=1 / me_range=32 / chroma_me=1 / trellis=2 / 8x8dct=1 / cqm=0 / deadzone=21,11 / fast_pskip=0 / chroma_qp_offset=-2 / threads=12 / lookahead_threads=3 / sliced_threads=0 / nr=0 / decimate=0 / interlaced=0 / bluray_compat=0 / constrained_intra=0 / fgo=0 / bframes=16 / b_pyramid=2 / b_adapt=2 / b_bias=0 / direct=3 / weightb=1 / open_gop=0 / weightp=2 / keyint=250 / keyint_min=23 / scenecut=40 / intra_refresh=0 / rc_lookahead=40 / rc=crf / mbtree=1 / crf=15.0000 / qcomp=0.70 / qpmin=0:0:0 / qpmax=81:81:81 / qpstep=4 / ip_ratio=1.40 / aq=3:0.95 / aq-sensitivity=10.00 / aq-factor=1.00:1.00:1.00 / aq2=0 / aq3=0
    Language                    : Japanese
    Default                     : Yes
    Forced                      : No
    Color range                 : Limited
    Matrix coefficients         : BT.709
    
    Audio
    ID                          : 2
    Format                      : Opus
    Codec ID                    : A_OPUS
    Duration                    : 24mn 10s
    Bit rate                    : 101 Kbps
    Channel(s)                  : 2 channels
    Channel positions           : Front: L R
    Sampling rate               : 48.0 KHz
    Frame rate                  : 50.000 fps (960 spf)
    Compression mode            : Lossy
    Stream size                 : 17.4 MiB (3%)
    Title                       : Originalton
    Language                    : Japanese
    Default                     : Yes
    Forced                      : No
    
    Text
    ID                          : 3
    Format                      : ASS
    Codec ID                    : S_TEXT/ASS
    Codec ID/Info               : Advanced Sub Station Alpha
    Duration                    : 24mn 10s
    Bit rate                    : 118 bps
    Count of elements           : 348
    Compression mode            : Lossless
    Stream size                 : 20.9 KiB (0%)
    Title                       : Akagami BD Folge 1 - Mirai-Fansubs
    Language                    : German
    Default                     : Yes
    Forced                      : No
    
    Menu
    00:00:00.000                : :Anfang
    00:01:22.541                : :Teil 1
    00:12:59.988                : :Teil 2
    00:22:25.511                : :Opening
    00:23:55.017                : :Nächstes Mal


    Alle Mirrors untereinander kompatibel
    Folgen einzeln ladbar
    Folge 12/12 online


    Download
    Geschützter Bereich - Bedanke dich beim Poster, um den Bereich sehen zu können
    Hier erfährst Du wie Du Dich bedanken kannst oder werde jetzt Premium Mitglied ab einer Spende von 5€ und erhalte sofortigen Zugriff auf den Downloadbereich!

    Geändert von Filbo11 (30. May 2016 um 17:36 Uhr) Grund: folge 11 & 12 hinzugefügt somit komplett

    [Links sind nur für registrierte und aktivierte Nutzer sichtbar. Klicke hier um dich zu registrieren.]

    Ich wäre allen sehr dankbar, die mir gravierende Fehler in meinen Releases per PN melden

  2. 10 Benutzer sagen Danke:

    Asuka Langley (5. April 2016),Cande (8. February 2016),Kibapadda (24. April 2016),midnighter (9. February 2016),Ronae (9. February 2016),SchwarzKlaue (28. October 2016),SONNYxq (17. February 2016),Suigetsu (3. April 2016),Tsunderekrieger (2. April 2016),Tzi (10. February 2016)

  3. #2
    Uploader Avatar von Filbo11
    Registriert seit
    Jan 2015
    Beiträge
    931
    Punkte
    17.281
    Errungenschaften:
    TomodachisErste Gruppe1 Jahr registriertCreated Album picturesTagger First Class

    AW: Akagami no Shirayuki-hime [Laufend][Jap-Dub][Ger-Sub][720p-10Bit][BluRay] - Mirai-Fansubs

    folge 3 & 4 hinzugefügt
    folge 1 & 2 gegen v2 ausgetauscht

    [Links sind nur für registrierte und aktivierte Nutzer sichtbar. Klicke hier um dich zu registrieren.]

    Ich wäre allen sehr dankbar, die mir gravierende Fehler in meinen Releases per PN melden

  4. #3
    Uploader Avatar von Filbo11
    Registriert seit
    Jan 2015
    Beiträge
    931
    Punkte
    17.281
    Errungenschaften:
    TomodachisErste Gruppe1 Jahr registriertCreated Album picturesTagger First Class

    AW: Akagami no Shirayuki-hime [Laufend][Jap-Dub][Ger-Sub][720p-10Bit][BluRay] - Mirai-Fansubs

    folge 5 & 6 hinzugefügt

    [Links sind nur für registrierte und aktivierte Nutzer sichtbar. Klicke hier um dich zu registrieren.]

    Ich wäre allen sehr dankbar, die mir gravierende Fehler in meinen Releases per PN melden

  5. #4
    Uploader Avatar von Filbo11
    Registriert seit
    Jan 2015
    Beiträge
    931
    Punkte
    17.281
    Errungenschaften:
    TomodachisErste Gruppe1 Jahr registriertCreated Album picturesTagger First Class

    AW: Akagami no Shirayuki-hime [Laufend][Jap-Dub][Ger-Sub][720p-10Bit][BluRay] - Mirai-Fansubs

    folge 7 & 8 hinzugefügt

    [Links sind nur für registrierte und aktivierte Nutzer sichtbar. Klicke hier um dich zu registrieren.]

    Ich wäre allen sehr dankbar, die mir gravierende Fehler in meinen Releases per PN melden

  6. #5
    Uploader Avatar von Filbo11
    Registriert seit
    Jan 2015
    Beiträge
    931
    Punkte
    17.281
    Errungenschaften:
    TomodachisErste Gruppe1 Jahr registriertCreated Album picturesTagger First Class

    AW: Akagami no Shirayuki-hime [Laufend][Jap-Dub][Ger-Sub][720p-10Bit][BluRay] - Mirai-Fansubs

    folge 9 & 10 hinzugefügt

    [Links sind nur für registrierte und aktivierte Nutzer sichtbar. Klicke hier um dich zu registrieren.]

    Ich wäre allen sehr dankbar, die mir gravierende Fehler in meinen Releases per PN melden

  7. #6
    Uploader Avatar von Filbo11
    Registriert seit
    Jan 2015
    Beiträge
    931
    Punkte
    17.281
    Errungenschaften:
    TomodachisErste Gruppe1 Jahr registriertCreated Album picturesTagger First Class

    AW: Akagami no Shirayuki-hime [Jap-Dub][Ger-Sub][720p-10Bit][BluRay] - Mirai-Fansubs

    folge 11 & 12 hinzugefügt
    somit ist die erste Staffel komplett

    [Links sind nur für registrierte und aktivierte Nutzer sichtbar. Klicke hier um dich zu registrieren.]

    Ich wäre allen sehr dankbar, die mir gravierende Fehler in meinen Releases per PN melden

Stichworte

Lesezeichen

Berechtigungen

  • Neue Themen erstellen: Nein
  • Themen beantworten: Nein
  • Anhänge hochladen: Nein
  • Beiträge bearbeiten: Nein
  •  

1 2 3 4 5 6 7 8 9 10 11 12 13 14 15 16 17 18 19 20 21 22 23 24 25 26 27 28 29 30 31 32 33 34 35 36 37 38 39 40 41 42 43 44 45 46 47 48 49 50 51 52 53 54 55 56 57 58 59 60 61 62 63 64 65 66 67 68 69 70 71 72 73 74 75 76 77 78 79 80 81 82 83 84 85 86 87 88 89 90 91 92 93 94 95 96 97 98 99 100 101 102 103 104 105 106 107 108 109 110 111 112 113 114 115 116 117 118 119 120 121 122 123 124 125 126 127 128 129 130 131 132 133 134 135 136 137 138 139 140 141 142 143 144 145 146 147 148 149 150 151 152 153 154 155 156 157 158