Ergebnis 1 bis 1 von 1

Thema: Akagami no Shirayukihime [Jap-Dub][Ger-Sub][720p][HDTV]-L-S

Dieser Thread wurde noch nicht bewertet. Bewerte ihn doch, wenn er dir gefällt!
  1. #1
    United we Stand Avatar von 00Ryuji00
    Registriert seit
    Oct 2012
    Beiträge
    3.902
    Punkte
    100.092
    Errungenschaften:
    TomodachisGang LeaderHikikomoriTagger Amateur50000 Erfahrungspunkte

    Akagami no Shirayukihime [Jap-Dub][Ger-Sub][720p][HDTV]-L-S


    Akagami no Shirayukihime
    赤髪の白雪姫
    Snow White with the Red Hair
    Die rothaarige Schneeprinzessin
    Red-haired Princess Snow White






    Kurzbeschreibung:
    Zitat Zitat von AniSearch.com
    Shirayuki, ein junges Mädchen, wurde mit einzigartigem apfelrotem Haar geboren. Sie trifft einen berühmten, aber törichten Prinzen namens Raji, der sich sofort in Shirayuki verliebt und will, dass diese seine Konkubine wird. Shirayuki schneidet ihre Haare kürzer und flüchtet in das benachbarte Land. Als sie durch die Wälder streift, begegnet sie einem Jungen namens Zen, dessen Wunden sie heilt, der dann aber von einem für Shirayuki bestimmten Apfel vergiftet wird. Prinz Raji schickt unterdessen seine Handlager aus, um sich auf die Suche nach Shirayuki zu machen. Was wird wohl aus Shirayuki? Und was für eine Person ist Zen in Wirklichkeit?


    Genre: Romanze
    Nebengenres: Drama, Fantasy, Romanze, Weiblich
    Jahr: 2015
    Sprache: Japanisch
    Untertitel: Deutsch
    Größe pro Folge: ~296 MiB
    Episodenanzahl: 12/12
    Format: MP4
    Auflösung: 720p (16:9)
    Videocodec: x264 (AVC)
    Audiocodec: AAC
    Releasegruppe: L-S
    Hoster: Share-Online, Uploaded


    MediaInfo
    Code:
    
    Format                                   : MPEG-4
    Format profile                           : Base Media
    Codec ID                                 : isom
    File size                                : 296 MiB
    Duration                                 : 24mn 9s
    Overall bit rate mode                    : Variable
    Overall bit rate                         : 1 711 Kbps
    Encoded date                             : UTC 2015-07-23 17:24:00
    Tagged date                              : UTC 2015-07-23 17:24:00
    
    Video
    ID                                       : 1
    Format                                   : AVC
    Format/Info                              : Advanced Video Codec
    Format profile                           : [email protected]
    Format settings, CABAC                   : Yes
    Format settings, ReFrames                : 6 frames
    Codec ID                                 : avc1
    Codec ID/Info                            : Advanced Video Coding
    Duration                                 : 24mn 9s
    Bit rate                                 : 1 454 Kbps
    Maximum bit rate                         : 6 205 Kbps
    Width                                    : 1 280 pixels
    Height                                   : 720 pixels
    Display aspect ratio                     : 16:9
    Frame rate mode                          : Constant
    Frame rate                               : 23.976 fps
    Color space                              : YUV
    Chroma subsampling                       : 4:2:0
    Bit depth                                : 8 bits
    Scan type                                : Progressive
    Bits/(Pixel*Frame)                       : 0.066
    Stream size                              : 251 MiB (85%)
    Writing library                          : x264 core 142 r2431+42 c69a006 tMod [[email protected] X86_64]
    Encoding settings                        : cabac=1 / ref=6 / deblock=1:0:0 / analyse=0x3:0x133 / me=hex / subme=7 / psy=1 / fade_compensate=0.00 / psy_rd=1.00:0.00 / mixed_ref=1 / me_range=16 / chroma_me=1 / trellis=1 / 8x8dct=1 / cqm=0 / deadzone=21,11 / fast_pskip=1 / chroma_qp_offset=-2 / threads=12 / lookahead_threads=2 / sliced_threads=0 / nr=0 / decimate=0 / interlaced=0 / bluray_compat=0 / constrained_intra=0 / fgo=0 / bframes=4 / b_pyramid=2 / b_adapt=1 / b_bias=0 / direct=3 / weightb=1 / open_gop=0 / weightp=2 / keyint=250 / keyint_min=23 / scenecut=40 / intra_refresh=0 / rc_lookahead=40 / rc=crf / mbtree=1 / crf=18.0000 / qcomp=0.60 / qpmin=0:0:0 / qpmax=69:69:69 / qpstep=4 / vbv_maxrate=2560 / vbv_bufsize=5120 / crf_max=0.0 / nal_hrd=none / filler=0 / ip_ratio=1.40 / aq=4:0.80 / aq-sensitivity=10.00 / aq-factor=1.00:1.00:1.00 / aq2=0 / aq3=0
    Encoded date                             : UTC 2015-07-18 17:06:59
    Tagged date                              : UTC 2015-07-23 17:24:06
    Color range                              : Limited
    Color primaries                          : BT.709
    Transfer characteristics                 : BT.709
    Matrix coefficients                      : BT.709
    
    Audio
    ID                                       : 2
    Format                                   : AAC
    Format/Info                              : Advanced Audio Codec
    Format profile                           : LC
    Codec ID                                 : 40
    Duration                                 : 24mn 9s
    Bit rate mode                            : Variable
    Bit rate                                 : 253 Kbps
    Maximum bit rate                         : 259 Kbps
    Channel(s)                               : 2 channels
    Channel positions                        : Front: L R
    Sampling rate                            : 48.0 KHz
    Compression mode                         : Lossy
    Stream size                              : 43.7 MiB (15%)
    Encoded date                             : UTC 2015-07-23 17:24:04
    Tagged date                              : UTC 2015-07-23 17:24:06
    
    





    Geschützter Bereich - Bedanke dich beim Poster, um den Bereich sehen zu können
    Hier erfährst Du wie Du Dich bedanken kannst oder werde jetzt Premium Mitglied ab einer Spende von 5€ und erhalte sofortigen Zugriff auf den Downloadbereich!



    [Links sind nur für registrierte und aktivierte Nutzer sichtbar. Klicke hier um dich zu registrieren.]
    Geändert von so1k (12. October 2016 um 20:32 Uhr)
    !!!Alle Anliegen bezüglich Uploads werden nur mit direktem Threadlink zum Angebot bearbeitet!!!

    Re-Uploadanfragen nur per PN - Ihr könnt mir auch Listen schicken

    Re-Uploads folgen nach Anfrage meist am Wochenende

    [Links sind nur für registrierte und aktivierte Nutzer sichtbar. Klicke hier um dich zu registrieren.] | [Links sind nur für registrierte und aktivierte Nutzer sichtbar. Klicke hier um dich zu registrieren.] | >[Links sind nur für registrierte und aktivierte Nutzer sichtbar. Klicke hier um dich zu registrieren.]<
    [Links sind nur für registrierte und aktivierte Nutzer sichtbar. Klicke hier um dich zu registrieren.]

  2. 26 Benutzer sagen Danke:

    Akulti (13. January 2016),Artheanos (7. January 2016),basdi (5. February 2016),bohne (11. February 2016),Bombur (18. January 2016),CommanderDavid (14. January 2016),crow92 (20. January 2016),doublegf (3. January 2016),Drachengott (16. January 2016),IQcrack (5. January 2016),kaiste (7. April 2016),Kokujou (31. March 2016),MattDeox (15. January 2016),MegaMacX (21. April 2016),midnighter (17. January 2016),Miriweth (10. April 2016),PrinzDarknis (25. April 2016),Raphael96 (1. April 2016),realmadridcf (2. April 2016),Seki (12. April 2016),Sendo2k (21. February 2016),SONNYxq (17. February 2016),Tekk (3. January 2016),Terrorhasii.x3 (22. July 2016),tmcx (5. January 2016),toter Fisch (12. January 2016)

Lesezeichen

Berechtigungen

  • Neue Themen erstellen: Nein
  • Themen beantworten: Nein
  • Anhänge hochladen: Nein
  • Beiträge bearbeiten: Nein
  •  

1 2 3 4 5 6 7 8 9 10 11 12 13 14 15 16 17 18 19 20 21 22 23 24 25 26 27 28 29 30 31 32 33 34 35 36 37 38 39 40 41 42 43 44 45 46 47 48 49 50 51 52 53 54 55 56 57 58 59 60 61 62 63 64 65 66 67 68 69 70 71 72 73 74 75 76 77 78 79 80 81 82 83 84 85 86 87 88 89 90 91 92 93 94 95 96 97 98 99 100 101 102 103 104 105 106 107 108 109 110 111 112 113 114 115 116 117 118 119 120 121 122 123 124 125 126 127 128 129 130 131 132 133 134 135 136 137 138 139 140 141 142 143 144 145 146 147 148 149 150 151 152 153 154 155 156 157 158