Ergebnis 1 bis 1 von 1

Thema: Aki Sora + Yume no Naka [Jap-Dub][Ger-Sub][1080p][BluRay]

Dieser Thread wurde noch nicht bewertet. Bewerte ihn doch, wenn er dir gefällt!
  1. #1
    Uploader Avatar von Filbo11
    Registriert seit
    Jan 2015
    Beiträge
    927
    Punkte
    17.213
    Errungenschaften:
    TomodachisErste Gruppe1 Jahr registriertCreated Album picturesTagger First Class

    Aki Sora + Yume no Naka [Jap-Dub][Ger-Sub][1080p][BluRay]

    Aki Sora
    あきそら

    Aki Sora: Yume no Naka
    あきそら~夢の中~
    Aki Sora: In a Dream, Aki Sora 2




    Handlung

    Sora Aoi lebt gemeinsam mit seinen beiden Schwestern Nami und Aki in einem Haushalt. Er ist sozusagen das Hausmädchen und übernimmt alle anfallenden Arbeiten wie Kochen oder Putzen. Seine Zwillingsschwester Nami ist ein kleiner Wirbelwind und charakterlich das ziemliche Gegenteil des schüchternen Sora. Die älteste Schwester Aki dagegen ist zwar häuslich etwas faul, aber schulisch gehört sie zu den Besten, sowohl sportlich als auch in anderen Bereichen. Schon seit einiger Zeit empfindet Sora mehr für seine ältere Schwester als nur geschwisterliche Liebe, doch er redet sich immer wieder ein, dass seine Gedanken gegen, die ihm beigebrachten, Werte und Normen verstoßen. Erst als Aki ihm offenbart, dass er auch für sie mehr ist, als nur ihr kleiner Bruder, kommen sich die beiden näher. Und so spielen Aki und Sora ein verstecktes Spiel mit ihrer Schwester Nami, die nichts von der Liebe der beiden zu wissen scheint.


    Format: mp4
    Dauer: ca. 24 min
    Größe: ca. 580-750 MB
    Episodenanzahl: 1/1 + 2/2
    Sprache: Japanisch
    Untertitel: Deutsch
    Group: [C-Subs]
    Hoster: Uploaded.net & Share-Online.biz
    Passwort: filbo11


    Screenshots & MediaInfo

    Spoiler
    [Links sind nur für registrierte und aktivierte Nutzer sichtbar. Klicke hier um dich zu registrieren.]
    [Links sind nur für registrierte und aktivierte Nutzer sichtbar. Klicke hier um dich zu registrieren.]
    [Links sind nur für registrierte und aktivierte Nutzer sichtbar. Klicke hier um dich zu registrieren.]

    Code:
    General
    Complete name               : [C-Subs]Aki Sora 0VA[h264 AAC  1080p][CCA7AFDF].mp4
    Format                      : MPEG-4
    Format profile              : Base Media
    Codec ID                    : isom
    File size                   : 585 MiB
    Duration                    : 22mn 3s
    Overall bit rate mode       : Variable
    Overall bit rate            : 3 707 Kbps
    Encoded date                : UTC 2014-09-16 17:31:48
    Tagged date                 : UTC 2014-09-16 17:31:48
    
    Video
    ID                          : 1
    Format                      : AVC
    Format/Info                 : Advanced Video Codec
    Format profile              : [email protected]
    Format settings, CABAC      : Yes
    Format settings, ReFrames   : 3 frames
    Codec ID                    : avc1
    Codec ID/Info               : Advanced Video Coding
    Duration                    : 22mn 3s
    Bit rate mode               : Variable
    Bit rate                    : 3 565 Kbps
    Maximum bit rate            : 40.0 Mbps
    Width                       : 1 920 pixels
    Height                      : 1 080 pixels
    Display aspect ratio        : 16:9
    Frame rate mode             : Constant
    Frame rate                  : 23.976 fps
    Color space                 : YUV
    Chroma subsampling          : 4:2:0
    Bit depth                   : 8 bits
    Scan type                   : Progressive
    Bits/(Pixel*Frame)          : 0.072
    Stream size                 : 562 MiB (96%)
    Writing library             : x264 core 138 r2358 9e941d1
    Encoding settings           : cabac=1 / ref=4 / deblock=1:0:0 / analyse=0x3:0x133 / me=umh / subme=10 / psy=1 / psy_rd=1.00:0.00 / mixed_ref=1 / me_range=24 / chroma_me=1 / trellis=2 / 8x8dct=1 / cqm=0 / deadzone=21,11 / fast_pskip=1 / chroma_qp_offset=-2 / threads=12 / lookahead_threads=1 / sliced_threads=0 / slices=4 / nr=0 / decimate=1 / interlaced=0 / bluray_compat=0 / constrained_intra=0 / bframes=3 / b_pyramid=1 / b_adapt=2 / b_bias=0 / direct=3 / weightb=1 / open_gop=0 / weightp=0 / keyint=23 / keyint_min=1 / scenecut=40 / intra_refresh=0 / rc_lookahead=23 / rc=crf / mbtree=1 / crf=18.0 / qcomp=0.60 / qpmin=10 / qpmax=51 / qpstep=4 / vbv_maxrate=40000 / vbv_bufsize=30000 / crf_max=0.0 / nal_hrd=vbr / ip_ratio=1.40 / aq=1:1.00
    Encoded date                : UTC 2014-09-16 15:54:56
    Tagged date                 : UTC 2014-09-16 17:31:49
    
    Audio
    ID                          : 2
    Format                      : AAC
    Format/Info                 : Advanced Audio Codec
    Format profile              : HE-AAC / LC
    Codec ID                    : 40
    Duration                    : 22mn 3s
    Bit rate mode               : Variable
    Bit rate                    : 139 Kbps
    Maximum bit rate            : 165 Kbps
    Channel(s)                  : 2 channels
    Channel positions           : Front: L R
    Sampling rate               : 48.0 KHz / 24.0 KHz
    Compression mode            : Lossy
    Stream size                 : 22.0 MiB (4%)
    Encoded date                : UTC 2014-09-08 20:25:16
    Tagged date                 : UTC 2014-09-16 17:31:49
    Code:
    General
    Complete name               :[C-Subs]Aki Sora - Yume no Naka 01[h264 AAC 1080p][BA91C05B].mp4
    Format                      : MPEG-4
    Format profile              : Base Media
    Codec ID                    : isom
    File size                   : 659 MiB
    Duration                    : 24mn 18s
    Overall bit rate mode       : Variable
    Overall bit rate            : 3 792 Kbps
    Encoded date                : UTC 2014-09-23 22:18:52
    Tagged date                 : UTC 2014-09-23 22:18:52
    
    Video
    ID                          : 1
    Format                      : AVC
    Format/Info                 : Advanced Video Codec
    Format profile              : [email protected]
    Format settings, CABAC      : Yes
    Format settings, ReFrames   : 3 frames
    Codec ID                    : avc1
    Codec ID/Info               : Advanced Video Coding
    Duration                    : 24mn 18s
    Bit rate mode               : Variable
    Bit rate                    : 3 651 Kbps
    Maximum bit rate            : 40.0 Mbps
    Width                       : 1 920 pixels
    Height                      : 1 080 pixels
    Display aspect ratio        : 16:9
    Frame rate mode             : Constant
    Frame rate                  : 23.976 fps
    Color space                 : YUV
    Chroma subsampling          : 4:2:0
    Bit depth                   : 8 bits
    Scan type                   : Progressive
    Bits/(Pixel*Frame)          : 0.073
    Stream size                 : 635 MiB (96%)
    Writing library             : x264 core 138 r2358 9e941d1
    Encoding settings           : cabac=1 / ref=4 / deblock=1:0:0 / analyse=0x3:0x133 / me=umh / subme=10 / psy=1 / psy_rd=1.00:0.00 / mixed_ref=1 / me_range=24 / chroma_me=1 / trellis=2 / 8x8dct=1 / cqm=0 / deadzone=21,11 / fast_pskip=1 / chroma_qp_offset=-2 / threads=12 / lookahead_threads=1 / sliced_threads=0 / slices=4 / nr=0 / decimate=1 / interlaced=0 / bluray_compat=0 / constrained_intra=0 / bframes=3 / b_pyramid=1 / b_adapt=2 / b_bias=0 / direct=3 / weightb=1 / open_gop=0 / weightp=0 / keyint=23 / keyint_min=1 / scenecut=40 / intra_refresh=0 / rc_lookahead=23 / rc=crf / mbtree=1 / crf=18.0 / qcomp=0.60 / qpmin=10 / qpmax=51 / qpstep=4 / vbv_maxrate=40000 / vbv_bufsize=30000 / crf_max=0.0 / nal_hrd=vbr / ip_ratio=1.40 / aq=1:1.00
    Encoded date                : UTC 2014-09-23 22:17:46
    Tagged date                 : UTC 2014-09-23 22:18:53
    
    Audio
    ID                          : 2
    Format                      : AAC
    Format/Info                 : Advanced Audio Codec
    Format profile              : HE-AAC / LC
    Codec ID                    : 40
    Duration                    : 24mn 18s
    Bit rate mode               : Variable
    Bit rate                    : 139 Kbps
    Maximum bit rate            : 175 Kbps
    Channel(s)                  : 2 channels
    Channel positions           : Front: L R
    Sampling rate               : 48.0 KHz / 24.0 KHz
    Compression mode            : Lossy
    Stream size                 : 24.1 MiB (4%)
    Encoded date                : UTC 2014-09-09 02:31:15
    Tagged date                 : UTC 2014-09-23 22:18:53


    Achtung, Aki Sora ist kein Hentai in dem sinne
    es werden keine Genitalien gezeigt, demnach wird auch nichts zensiert.
    daher werden die OVA´s zu den Ecchi Animes gezählt


    Download
    Geschützter Bereich - Bedanke dich beim Poster, um den Bereich sehen zu können
    Hier erfährst Du wie Du Dich bedanken kannst oder werde jetzt Premium Mitglied ab einer Spende von 5€ und erhalte sofortigen Zugriff auf den Downloadbereich!


    Geändert von Filbo11 (12. April 2016 um 10:20 Uhr) Grund: share-online.biz hinzugefügt

    [Links sind nur für registrierte und aktivierte Nutzer sichtbar. Klicke hier um dich zu registrieren.]

    Ich wäre allen sehr dankbar, die mir gravierende Fehler in meinen Releases per PN melden

  2. 34 Benutzer sagen Danke:

    ソウル イーター  (12. April 2015),acer25 (6. April 2015),Aluaran (6. April 2015),Anuy (7. June 2016),Asuka Langley (16. June 2015),Avenger2201 (8. April 2015),azzieh (7. April 2015),Blackdragon1702 (28. January 2016),Bloodywaffe (25. November 2015),Darkwishes (14. May 2015),Expert2506 (5. December 2015),exterminus (6. April 2015),Ghostraven (7. September 2015),haltdiefresse (12. November 2015),InFaerno (9. July 2015),Kartox (12. May 2015),koax123 (16. November 2015),krasserGaul (6. April 2015),midnighter (6. April 2015),Miles360 (6. April 2015),peddybub (11. April 2015),realmadridcf (27. December 2015),rekiznuh1 (11. October 2015),SnowCat (11. April 2015),Tet2 (30. January 2016),theundead1108 (29. July 2015),Tschu23 (6. April 2015),Tzi (6. April 2015),Valetinese (9. April 2015),whocaresnotme (26. January 2016),YamiXGhost (10. April 2015),YozoraShiku (7. May 2015),Zeigerful (6. April 2015),zoe#449 (29. March 2016)

Lesezeichen

Berechtigungen

  • Neue Themen erstellen: Nein
  • Themen beantworten: Nein
  • Anhänge hochladen: Nein
  • Beiträge bearbeiten: Nein
  •  

1 2 3 4 5 6 7 8 9 10 11 12 13 14 15 16 17 18 19 20 21 22 23 24 25 26 27 28 29 30 31 32 33 34 35 36 37 38 39 40 41 42 43 44 45 46 47 48 49 50 51 52 53 54 55 56 57 58 59 60 61 62 63 64 65 66 67 68 69 70 71 72 73 74 75 76 77 78 79 80 81 82 83 84 85 86 87 88 89 90 91 92 93 94 95 96 97 98 99 100 101 102 103 104 105 106 107 108 109 110 111 112 113 114 115 116 117 118 119 120 121 122 123 124 125 126 127 128 129 130 131 132 133 134 135 136 137 138 139 140 141 142 143 144 145 146 147 148 149 150 151 152 153 154 155 156 157 158