Ergebnis 1 bis 1 von 1

Thema: Alien 9 [Jap-Dub][Ger-Sub][DVDRip]-GAX

Dieser Thread wurde noch nicht bewertet. Bewerte ihn doch, wenn er dir gefällt!
  1. #1
    United we Stand Avatar von 00Ryuji00
    Registriert seit
    Oct 2012
    Beiträge
    3.902
    Punkte
    99.909
    Errungenschaften:
    TomodachisGang LeaderHikikomoriTagger Amateur50000 Erfahrungspunkte

    Alien 9 [Jap-Dub][Ger-Sub][DVDRip]-GAX


    Alien 9
    エイリアン9
    Alien Nine






    Kurzbeschreibung:
    Zitat Zitat von AniSearch.com
    Zu Beginn des neuen Schuljahres in der Grundschule Nr. 9 werden für die Sechstklässler die Zuständigkeiten verteilt: Klassensprecher, Füttern der Haustiere - und das jeweilige Mitglied im Anti-Alien-Team, welches einen Alien-Symbionten wie einen Helm aufsetzen muss. Dieser Symbiont ernährt sich vom Schweiß der Haut seines Partners, den er mit seiner langen Zunge ableckt; im Gegenzug verleiht er seinem Träger allerdings Schutz im Kampf gegen andere Aliens. Denn diese einzufangen, sobald sie auf der Erde gelandet sind, ist die Aufgabe dieses Teams.

    Während sich die lebhafte Toomine Kasumi und die ernste Kawamura Kumi freiwillig für diese Aufgabe gemeldet haben, wurde die ängstliche Ootani Yuri gegen ihren Willen ausgewählt. Und der Einsatz gegen diese fremden Wesen verlangt einen hohen emotionalen Preis von diesen jungen Mädchen.


    Spieldauer: 29min
    Genre: Drama
    Nebengenres: Action, Alltagsleben, Drama, Horror, Psychodrama, Scifi
    Jahr: 2001
    Sprache: Japanisch
    Untertitel: Deutsch
    Größe pro Folge: ~207 MiB
    Episodenanzahl: 4/4
    Format: AVI
    Auflösung: 480p (4:3)
    Videocodec: XviD (MPEG-4 Visual)
    Audiocodec: MPEG Audio
    Releasegruppe: GAX
    Hoster: Share-Online, Uploaded


    MediaInfo
    Code:
    
    Format                                   : AVI
    Format/Info                              : Audio Video Interleave
    File size                                : 207 MiB
    Duration                                 : 27mn 40s
    Overall bit rate                         : 1 045 Kbps
    Writing application                      : VirtualDubMod 1.5.10.2 (build 2540/release)
    Writing library                          : VirtualDubMod build 2540/release
    
    Video
    ID                                       : 0
    Format                                   : MPEG-4 Visual
    Format profile                           : Advanced [email protected]
    Format settings, BVOP                    : 2
    Format settings, QPel                    : No
    Format settings, GMC                     : No warppoints
    Format settings, Matrix                  : Default (H.263)
    Muxing mode                              : Packed bitstream
    Codec ID                                 : XVID
    Codec ID/Hint                            : XviD
    Duration                                 : 27mn 40s
    Bit rate                                 : 907 Kbps
    Width                                    : 640 pixels
    Height                                   : 480 pixels
    Display aspect ratio                     : 4:3
    Frame rate                               : 23.976 fps
    Color space                              : YUV
    Chroma subsampling                       : 4:2:0
    Bit depth                                : 8 bits
    Scan type                                : Progressive
    Compression mode                         : Lossy
    Bits/(Pixel*Frame)                       : 0.123
    Stream size                              : 180 MiB (87%)
    Writing library                          : XviD 1.2.0.dev47 (UTC 2006-11-01)
    
    Audio
    ID                                       : 1
    Format                                   : MPEG Audio
    Format version                           : Version 1
    Format profile                           : Layer 3
    Mode                                     : Joint stereo
    Mode extension                           : MS Stereo
    Codec ID                                 : 55
    Codec ID/Hint                            : MP3
    Duration                                 : 27mn 40s
    Bit rate mode                            : Constant
    Bit rate                                 : 128 Kbps
    Channel(s)                               : 2 channels
    Sampling rate                            : 48.0 KHz
    Compression mode                         : Lossy
    Stream size                              : 25.3 MiB (12%)
    Alignment                                : Aligned on interleaves
    Interleave, duration                     : 42 ms (1.00 video frame)
    Interleave, preload duration             : 504 ms
    Writing library                          : LAME3.98a
    Encoding settings                        : -m j -V 4 -q 2 -lowpass 17 -b 128
    
    





    Geschützter Bereich - Bedanke dich beim Poster, um den Bereich sehen zu können
    Hier erfährst Du wie Du Dich bedanken kannst oder werde jetzt Premium Mitglied ab einer Spende von 5€ und erhalte sofortigen Zugriff auf den Downloadbereich!

    [Links sind nur für registrierte und aktivierte Nutzer sichtbar. Klicke hier um dich zu registrieren.]
    !!!Alle Anliegen bezüglich Uploads werden nur mit direktem Threadlink zum Angebot bearbeitet!!!

    Re-Uploadanfragen nur per PN - Ihr könnt mir auch Listen schicken

    Re-Uploads erfolgen meist innerhalb 24h, kann aber auch bis zu 7 Tage dauern

    [Links sind nur für registrierte und aktivierte Nutzer sichtbar. Klicke hier um dich zu registrieren.] | [Links sind nur für registrierte und aktivierte Nutzer sichtbar. Klicke hier um dich zu registrieren.] | >[Links sind nur für registrierte und aktivierte Nutzer sichtbar. Klicke hier um dich zu registrieren.]<
    [Links sind nur für registrierte und aktivierte Nutzer sichtbar. Klicke hier um dich zu registrieren.]

  2. 5 Benutzer sagen Danke:

    Angel86 (7. May 2016),Asuka Langley (6. May 2016),chopper23 (5. May 2016),Conopas (7. May 2016),Ronae (5. May 2016)

Lesezeichen

Berechtigungen

  • Neue Themen erstellen: Nein
  • Themen beantworten: Nein
  • Anhänge hochladen: Nein
  • Beiträge bearbeiten: Nein
  •  

1 2 3 4 5 6 7 8 9 10 11 12 13 14 15 16 17 18 19 20 21 22 23 24 25 26 27 28 29 30 31 32 33 34 35 36 37 38 39 40 41 42 43 44 45 46 47 48 49 50 51 52 53 54 55 56 57 58 59 60 61 62 63 64 65 66 67 68 69 70 71 72 73 74 75 76 77 78 79 80 81 82 83 84 85 86 87 88 89 90 91 92 93 94 95 96 97 98 99 100 101 102 103 104 105 106 107 108 109 110 111 112 113 114 115 116 117 118 119 120 121 122 123 124 125 126 127 128 129 130 131 132 133 134 135 136 137 138 139 140 141 142 143 144 145 146 147 148 149 150 151 152 153 154 155 156 157 158