Ergebnis 1 bis 2 von 2

Thema: Amagi Brilliant Park [Jap-Dub][Ger-Sub][720p-8Bit/10Bit][HDTV] - Chinurarete Subs

Dieser Thread wurde durchschnittlich mit 5 Sternen bewertet, wobei 1 Stern die schlechteste und 5 Sterne die beste Bewertung ist. Es haben insgesamt 1 Mitglieder eine Bewertung abgegeben.

  1. #1
    United we Stand Avatar von 00Ryuji00
    Registriert seit
    Oct 2012
    Beiträge
    3.902
    Punkte
    100.092
    Errungenschaften:
    TomodachisGang LeaderHikikomoriTagger Amateur50000 Erfahrungspunkte

    Amagi Brilliant Park [Jap-Dub][Ger-Sub][720p-8Bit/10Bit][HDTV] - Chinurarete Subs


    Amagi Brilliant Park
    甘城ブリリアントパーク




    Kurzbeschreibung:
    Zitat Zitat von AniSearch.com
    Seiya Kanie ist ein Narzisst, wie er im Buche steht. Er hält sich für die Krönung der Schöpfung und hat von Frauen ein durchweg negatives Bild. So braucht es auch schiere Waffengewalt, dass er sich von seiner neuen Mitschülerin Isuzu Sento zu einem Date im Amagi Brilliant Vergnügungspark "überreden" lässt. Was er dort vorfindet ist ein Park, der seine besten Zeiten eindeutig hinter sich hat und in dem nur noch vereinzelte Besucher durch die Anlage mit ihren heruntergekommenen Attraktionen streifen. Dem nicht genug endet sein enttäuschendes Date auch noch damit, dass er Latifah Fullanza, der jungen Managerin des Parks vorgestellt wird. Diese erklärt ihm nicht nur, dass es nun an ihm liegt die Anlage wieder populär zu machen, sondern eröffnet ihm auch den unglaublichen Hintergrund des Amagi Brilliant Vergnügungsparks und seiner Beschäftigten.
    Spieldauer: 24min
    Genre: Komödie
    Nebengenres: Drama, Fantasy, Komödie
    Jahr: 2014
    Sprache: Japanisch
    Untertitel: Deutsch
    Größe pro Folge: 8Bit ~515MB, 10Bit ~ 500MB
    Episodenanzahl: 13/13
    Format: MP4, MKV
    Auflösung: 720p (16:9)
    Videocodec: x264 (AVC)
    Audiocodec: AAC
    Releasegruppe: Chinurarete Subs
    Hoster: Uploaded, Share-Online

    MediaInfo
    8Bit
    Code:
    
    Format                                   : MPEG-4
    Format profile                           : Base Media
    Codec ID                                 : isom
    File size                                : 543 MiB
    Duration                                 : 24mn 9s
    Overall bit rate                         : 3 140 Kbps
    Writing application                      : Lavf54.63.104
    
    Video
    ID                                       : 1
    Format                                   : AVC
    Format/Info                              : Advanced Video Codec
    Format profile                           : [email protected]
    Format settings, CABAC                   : Yes
    Format settings, ReFrames                : 9 frames
    Codec ID                                 : avc1
    Codec ID/Info                            : Advanced Video Coding
    Duration                                 : 24mn 9s
    Bit rate                                 : 2 945 Kbps
    Width                                    : 1 280 pixels
    Height                                   : 720 pixels
    Display aspect ratio                     : 16:9
    Frame rate mode                          : Variable
    Frame rate                               : 23.976 fps
    Minimum frame rate                       : 23.976 fps
    Maximum frame rate                       : 25.000 fps
    Color space                              : YUV
    Chroma subsampling                       : 4:2:0
    Bit depth                                : 8 bits
    Scan type                                : Progressive
    Bits/(Pixel*Frame)                       : 0.133
    Stream size                              : 509 MiB (94%)
    Writing library                          : x264 core 142 r2409kMod d6b4e63
    Encoding settings                        : cabac=1 / ref=9 / deblock=1:0:0 / analyse=0x1:0x131 / me=umh / subme=11 / psy=1 / fade_compensate=0.00 / psy_rd=1.00:0.00 / mixed_ref=1 / me_range=60 / chroma_me=1 / trellis=2 / 8x8dct=0 / cqm=0 / deadzone=21,11 / fast_pskip=0 / chroma_qp_offset=-2 / threads=9 / lookahead_threads=2 / sliced_threads=0 / nr=0 / decimate=0 / interlaced=0 / bluray_compat=0 / constrained_intra=0 / fgo=0 / bframes=16 / b_pyramid=2 / b_adapt=2 / b_bias=0 / direct=3 / weightb=1 / open_gop=0 / weightp=2 / keyint=250 / keyint_min=23 / scenecut=40 / intra_refresh=0 / rc_lookahead=250 / rc=crf / mbtree=1 / crf=16.0000 / qcomp=0.75 / qpmin=0 / qpmax=69 / qpstep=4 / ip_ratio=1.40 / aq=2:0.86
    Color range                              : Limited
    Color primaries                          : BT.709
    Transfer characteristics                 : BT.709
    Matrix coefficients                      : BT.709
    
    Audio
    ID                                       : 2
    Format                                   : AAC
    Format/Info                              : Advanced Audio Codec
    Format profile                           : LC
    Codec ID                                 : 40
    Duration                                 : 24mn 9s
    Bit rate mode                            : Constant
    Bit rate                                 : 192 Kbps
    Channel(s)                               : 2 channels
    Channel positions                        : Front: L R
    Sampling rate                            : 48.0 KHz
    Compression mode                         : Lossy
    Stream size                              : 32.6 MiB (6%)
    10Bit
    Code:
    
    Format                                   : Matroska
    Format version                           : Version 4 / Version 2
    File size                                : 524 MiB
    Duration                                 : 24mn 12s
    Overall bit rate                         : 3 026 Kbps
    Movie name                               : [Chinurarete Subs] Amagi Brilliant Park - Folge 1 -  Besuchermangel!
    Encoded date                             : UTC 2014-10-28 20:54:25
    Writing application                      : mkvmerge v7.0.0 ('Where We Going') 64bit built on Jun  9 2014 15:16:27
    Writing library                          : libebml v1.3.0 + libmatroska v1.4.1
    Attachements                             : ClearfaceGothicLTStd-Black.otf / ClearfaceGothicLTStd-Medium.otf / ClearfaceGothicLTStd-Roman_0.otf / CLRB.TTF / CLRN.TTF / KozMinPro-Heavy.otf / Maiandb.TTF / Rosario-Bold_3.ttf / Rosario-BoldItalic_0.ttf / Rosario-Italic.ttf / Rosario-Regular.ttf / andlso.ttf / AurulentSans-Bold.otf / CLEARFACE_SSI.TTF / Clearface_SSi_Bold.ttf
    _STATISTICS_WRITING_APP                  : mkvmerge v7.0.0 ('Where We Going') 64bit built on Jun  9 2014 15:16:27
    _STATISTICS_WRITING_DATE_UTC             : 2014-10-28 20:54:25
    _STATISTICS_TAGS                         : BPS DURATION NUMBER_OF_FRAMES NUMBER_OF_BYTES
    DURATION                                 : 00:24:12.210000000
    NUMBER_OF_FRAMES                         : 3163
    NUMBER_OF_BYTES                          : 533664
    
    Video
    ID                                       : 1
    Format                                   : AVC
    Format/Info                              : Advanced Video Codec
    Format profile                           : High [email protected]
    Format settings, CABAC                   : Yes
    Format settings, ReFrames                : 16 frames
    Codec ID                                 : V_MPEG4/ISO/AVC
    Duration                                 : 24mn 12s
    Width                                    : 1 280 pixels
    Height                                   : 720 pixels
    Display aspect ratio                     : 16:9
    Frame rate mode                          : Constant
    Frame rate                               : 23.976 fps
    Color space                              : YUV
    Chroma subsampling                       : 4:2:0
    Bit depth                                : 10 bits
    Scan type                                : Progressive
    Title                                    : Video
    Writing library                          : x264 core 142 r2409kMod d6b4e63
    Encoding settings                        : cabac=1 / ref=16 / deblock=1:0:0 / analyse=0x3:0x133 / me=umh / subme=11 / psy=1 / fade_compensate=0.00 / psy_rd=0.80:0.10 / mixed_ref=1 / me_range=60 / chroma_me=1 / trellis=2 / 8x8dct=1 / cqm=0 / deadzone=21,11 / fast_pskip=0 / chroma_qp_offset=-3 / threads=9 / lookahead_threads=2 / sliced_threads=0 / nr=0 / decimate=0 / interlaced=0 / bluray_compat=0 / constrained_intra=0 / fgo=0 / bframes=16 / b_pyramid=2 / b_adapt=2 / b_bias=0 / direct=3 / weightb=1 / open_gop=1 / weightp=2 / keyint=250 / keyint_min=23 / scenecut=40 / intra_refresh=0 / rc_lookahead=250 / rc=crf / mbtree=1 / crf=16.0000 / qcomp=0.75 / qpmin=0 / qpmax=81 / qpstep=4 / ip_ratio=1.40 / aq=2:0.80
    Language                                 : German
    Default                                  : Yes
    Forced                                   : Yes
    Color range                              : Limited
    Color primaries                          : BT.709
    Transfer characteristics                 : BT.709
    Matrix coefficients                      : BT.709
    _STATISTICS_WRITING_APP                  : mkvmerge v7.0.0 ('Where We Going') 64bit built on Jun  9 2014 15:16:27
    _STATISTICS_WRITING_DATE_UTC             : 2014-10-28 20:54:25
    _STATISTICS_TAGS                         : BPS DURATION NUMBER_OF_FRAMES NUMBER_OF_BYTES
    DURATION                                 : 00:24:09.657000000
    NUMBER_OF_FRAMES                         : 34757
    NUMBER_OF_BYTES                          : 508413670
    
    Audio
    ID                                       : 2
    Format                                   : AAC
    Format/Info                              : Advanced Audio Codec
    Format profile                           : LC
    Codec ID                                 : A_AAC
    Duration                                 : 24mn 12s
    Channel(s)                               : 2 channels
    Channel positions                        : Front: L R
    Sampling rate                            : 48.0 KHz
    Compression mode                         : Lossy
    Title                                    : Audio
    Language                                 : Japanese
    Default                                  : Yes
    Forced                                   : Yes
    
    Text #1
    ID                                       : 3
    Format                                   : ASS
    Codec ID                                 : S_TEXT/ASS
    Codec ID/Info                            : Advanced Sub Station Alpha
    Compression mode                         : Lossless
    Title                                    : Farbsub
    Language                                 : German
    Default                                  : Yes
    Forced                                   : Yes
    
    Text #2
    ID                                       : 4
    Format                                   : ASS
    Codec ID                                 : S_TEXT/ASS
    Codec ID/Info                            : Advanced Sub Station Alpha
    Compression mode                         : Lossless
    Title                                    : Kein Farbsub
    Language                                 : German
    Default                                  : No
    Forced                                   : No
    
    Menu
    00:00:00.000                             : :Einleitung
    00:00:47.047                             : :Opening
    00:02:16.845                             : :Hauptteil
    00:22:09.870                             : :Ending
    00:23:39.835                             : :Vorschau




    Geschützter Bereich - Bedanke dich beim Poster, um den Bereich sehen zu können
    Hier erfährst Du wie Du Dich bedanken kannst oder werde jetzt Premium Mitglied ab einer Spende von 5€ und erhalte sofortigen Zugriff auf den Downloadbereich!



    [Links sind nur für registrierte und aktivierte Nutzer sichtbar. Klicke hier um dich zu registrieren.]
    !!!Alle Anliegen bezüglich Uploads werden nur mit direktem Threadlink zum Angebot bearbeitet!!!

    Re-Uploadanfragen nur per PN - Ihr könnt mir auch Listen schicken

    Re-Uploads folgen nach Anfrage meist am Wochenende

    [Links sind nur für registrierte und aktivierte Nutzer sichtbar. Klicke hier um dich zu registrieren.] | [Links sind nur für registrierte und aktivierte Nutzer sichtbar. Klicke hier um dich zu registrieren.] | >[Links sind nur für registrierte und aktivierte Nutzer sichtbar. Klicke hier um dich zu registrieren.]<
    [Links sind nur für registrierte und aktivierte Nutzer sichtbar. Klicke hier um dich zu registrieren.]

  2. 22 Benutzer sagen Danke:

    Angel86 (9. May 2016),BlackIron (20. November 2016),Cooky1988 (8. May 2016),Demichi (7. May 2016),doN1337 (9. September 2016),Drachengott (6. May 2016),gerard123 (17. November 2016),Griever (7. May 2016),heikobaer (6. May 2016),Kenny328 (29. October 2016),khavatarie (11. June 2016),krasserGaul (9. May 2016),Miles360 (6. May 2016),Miriweth (3. August 2016),shawn10398 (22. June 2016),Sirenetix (28. June 2016),SONNYxq (7. May 2016),Terrorhasii.x3 (8. June 2016),Tsunderekrieger (2. October 2016),Vivere (14. November 2016),xRei (28. May 2016),Yaranaika (8. October 2016)

  3. #2
    Uploader Avatar von Filbo11
    Registriert seit
    Jan 2015
    Beiträge
    931
    Punkte
    17.281
    Errungenschaften:
    TomodachisErste Gruppe1 Jahr registriertCreated Album picturesTagger First Class

    AW: Amagi Brilliant Park [Jap-Dub][Ger-Sub][720p-8Bit/10Bit][HDTV] - Chinurarete Subs

    Amagi Brilliant Park
    甘城ブリリアントパーク




    Beschreibung

    Seiya Kanie ist ein Narzisst, wie er im Buche steht. Er hält sich für die Krönung der Schöpfung und hat von Frauen ein durchweg negatives Bild. So braucht es auch schiere Waffengewalt, dass er sich von seiner neuen Mitschülerin Isuzu Sento zu einem Date im Amagi Brilliant Vergnügungspark "überreden" lässt. Was er dort vorfindet ist ein Park, der seine besten Zeiten eindeutig hinter sich hat und in dem nur noch vereinzelte Besucher durch die Anlage mit ihren heruntergekommenen Attraktionen streifen. Dem nicht genug endet sein enttäuschendes Date auch noch damit, dass er Latifah Fullanza, der jungen Managerin des Parks vorgestellt wird. Diese erklärt ihm nicht nur, dass es nun an ihm liegt die Anlage wieder populär zu machen, sondern eröffnet ihm auch den unglaublichen Hintergrund des Amagi Brilliant Vergnügungsparks und seiner Beschäftigten.


    Format: mp4 [8Bit] / mkv [10Bit]
    Dauer: ca. 24 min
    Größe: ca. ~515 MB [8Bit] / ~500 MB [10Bit]
    Episodenanzahl: 13/13
    Sprache: Japanisch
    Untertitel: Deutsch
    Group: [Chinurarete Subs]
    Hoster: Uploaded.net & Share-Online.biz
    kein PW


    Screenshots & MediaInfo

    8Bit
    [Links sind nur für registrierte und aktivierte Nutzer sichtbar. Klicke hier um dich zu registrieren.]

    Code:
    General
    Complete name               : [Chinurarete_Subs]Amagi_Brilliant_Park_Folge_01v2_8BIT.mp4
    Format                      : MPEG-4
    Format profile              : Base Media
    Codec ID                    : isom (isom/iso2/avc1/mp41)
    File size                   : 543 MiB
    Duration                    : 24mn 9s
    Overall bit rate            : 3 140 Kbps
    Writing application         : Lavf54.63.104
    
    Video
    ID                          : 1
    Format                      : AVC
    Format/Info                 : Advanced Video Codec
    Format profile              : [email protected]
    Format settings, CABAC      : Yes
    Format settings, ReFrames   : 9 frames
    Codec ID                    : avc1
    Codec ID/Info               : Advanced Video Coding
    Duration                    : 24mn 9s
    Bit rate                    : 2 945 Kbps
    Width                       : 1 280 pixels
    Height                      : 720 pixels
    Display aspect ratio        : 16:9
    Frame rate mode             : Variable
    Frame rate                  : 23.976 (24000/1001) fps
    Minimum frame rate          : 23.976 fps
    Maximum frame rate          : 25.000 fps
    Color space                 : YUV
    Chroma subsampling          : 4:2:0
    Bit depth                   : 8 bits
    Scan type                   : Progressive
    Bits/(Pixel*Frame)          : 0.133
    Stream size                 : 509 MiB (94%)
    Writing library             : x264 core 142 r2409kMod d6b4e63
    Encoding settings           : cabac=1 / ref=9 / deblock=1:0:0 / analyse=0x1:0x131 / me=umh / subme=11 / psy=1 / fade_compensate=0.00 / psy_rd=1.00:0.00 / mixed_ref=1 / me_range=60 / chroma_me=1 / trellis=2 / 8x8dct=0 / cqm=0 / deadzone=21,11 / fast_pskip=0 / chroma_qp_offset=-2 / threads=9 / lookahead_threads=2 / sliced_threads=0 / nr=0 / decimate=0 / interlaced=0 / bluray_compat=0 / constrained_intra=0 / fgo=0 / bframes=16 / b_pyramid=2 / b_adapt=2 / b_bias=0 / direct=3 / weightb=1 / open_gop=0 / weightp=2 / keyint=250 / keyint_min=23 / scenecut=40 / intra_refresh=0 / rc_lookahead=250 / rc=crf / mbtree=1 / crf=16.0000 / qcomp=0.75 / qpmin=0 / qpmax=69 / qpstep=4 / ip_ratio=1.40 / aq=2:0.86
    Color range                 : Limited
    Color primaries             : BT.709
    Transfer characteristics    : BT.709
    Matrix coefficients         : BT.709
    
    Audio
    ID                          : 2
    Format                      : AAC
    Format/Info                 : Advanced Audio Codec
    Format profile              : LC
    Codec ID                    : 40
    Duration                    : 24mn 9s
    Bit rate mode               : Constant
    Bit rate                    : 192 Kbps
    Channel(s)                  : 2 channels
    Channel positions           : Front: L R
    Sampling rate               : 48.0 KHz
    Frame rate                  : 46.875 fps (1024 spf)
    Compression mode            : Lossy
    Stream size                 : 32.6 MiB (6%)
    Default                     : Yes
    Alternate group             : 1


    10Bit
    [Links sind nur für registrierte und aktivierte Nutzer sichtbar. Klicke hier um dich zu registrieren.]

    Code:
    General
    
    Complete name               : [Chinurarete_Subs]Amagi_Brilliant_Park_Folge_01v2_10BIT.mkv
    Format                      : Matroska
    Format version              : Version 4 / Version 2
    File size                   : 524 MiB
    Duration                    : 24mn 12s
    Overall bit rate            : 3 026 Kbps
    Movie name                  : [Chinurarete Subs] Amagi Brilliant Park - Folge 1 -  Besuchermangel!
    Encoded date                : UTC 2014-10-28 20:54:25
    Writing application         : mkvmerge v7.0.0 ('Where We Going') 64bit built on Jun  9 2014 15:16:27
    Writing library             : libebml v1.3.0 + libmatroska v1.4.1
    Attachments                 : ClearfaceGothicLTStd-Black.otf / ClearfaceGothicLTStd-Medium.otf / ClearfaceGothicLTStd-Roman_0.otf / CLRB.TTF / CLRN.TTF / KozMinPro-Heavy.otf / Maiandb.TTF / Rosario-Bold_3.ttf / Rosario-BoldItalic_0.ttf / Rosario-Italic.ttf / Rosario-Regular.ttf / andlso.ttf / AurulentSans-Bold.otf / CLEARFACE_SSI.TTF / Clearface_SSi_Bold.ttf
    
    Video
    ID                          : 1
    Format                      : AVC
    Format/Info                 : Advanced Video Codec
    Format profile              : High [email protected]
    Format settings, CABAC      : Yes
    Format settings, ReFrames   : 16 frames
    Codec ID                    : V_MPEG4/ISO/AVC
    Duration                    : 24mn 9s
    Bit rate                    : 2 806 Kbps
    Width                       : 1 280 pixels
    Height                      : 720 pixels
    Display aspect ratio        : 16:9
    Frame rate mode             : Constant
    Frame rate                  : 23.976 (24000/1001) fps
    Color space                 : YUV
    Chroma subsampling          : 4:2:0
    Bit depth                   : 10 bits
    Scan type                   : Progressive
    Bits/(Pixel*Frame)          : 0.127
    Stream size                 : 485 MiB (93%)
    Title                       : Video
    Writing library             : x264 core 142 r2409kMod d6b4e63
    Encoding settings           : cabac=1 / ref=16 / deblock=1:0:0 / analyse=0x3:0x133 / me=umh / subme=11 / psy=1 / fade_compensate=0.00 / psy_rd=0.80:0.10 / mixed_ref=1 / me_range=60 / chroma_me=1 / trellis=2 / 8x8dct=1 / cqm=0 / deadzone=21,11 / fast_pskip=0 / chroma_qp_offset=-3 / threads=9 / lookahead_threads=2 / sliced_threads=0 / nr=0 / decimate=0 / interlaced=0 / bluray_compat=0 / constrained_intra=0 / fgo=0 / bframes=16 / b_pyramid=2 / b_adapt=2 / b_bias=0 / direct=3 / weightb=1 / open_gop=1 / weightp=2 / keyint=250 / keyint_min=23 / scenecut=40 / intra_refresh=0 / rc_lookahead=250 / rc=crf / mbtree=1 / crf=16.0000 / qcomp=0.75 / qpmin=0 / qpmax=81 / qpstep=4 / ip_ratio=1.40 / aq=2:0.80
    Language                    : German
    Default                     : Yes
    Forced                      : Yes
    Color range                 : Limited
    Color primaries             : BT.709
    Transfer characteristics    : BT.709
    Matrix coefficients         : BT.709
    
    Audio
    ID                          : 2
    Format                      : AAC
    Format/Info                 : Advanced Audio Codec
    Format profile              : LC
    Codec ID                    : A_AAC
    Duration                    : 24mn 9s
    Bit rate                    : 192 Kbps
    Channel(s)                  : 2 channels
    Channel positions           : Front: L R
    Sampling rate               : 48.0 KHz
    Frame rate                  : 46.875 fps (1024 spf)
    Compression mode            : Lossy
    Stream size                 : 32.6 MiB (6%)
    Title                       : Audio
    Language                    : Japanese
    Default                     : Yes
    Forced                      : Yes
    
    Text #1
    ID                          : 3
    Format                      : ASS
    Codec ID                    : S_TEXT/ASS
    Codec ID/Info               : Advanced Sub Station Alpha
    Duration                    : 24mn 12s
    Bit rate                    : 2 939 bps
    Count of elements           : 3163
    Compression mode            : Lossless
    Stream size                 : 521 KiB (0%)
    Title                       : Farbsub
    Language                    : German
    Default                     : Yes
    Forced                      : Yes
    
    Text #2
    ID                          : 4
    Format                      : ASS
    Codec ID                    : S_TEXT/ASS
    Codec ID/Info               : Advanced Sub Station Alpha
    Duration                    : 24mn 12s
    Bit rate                    : 2 939 bps
    Count of elements           : 3163
    Compression mode            : Lossless
    Stream size                 : 521 KiB (0%)
    Title                       : Kein Farbsub
    Language                    : German
    Default                     : No
    Forced                      : No
    
    Menu
    00:00:00.000                : :Einleitung
    00:00:47.047                : :Opening
    00:02:16.845                : :Hauptteil
    00:22:09.870                : :Ending
    00:23:39.835                : :Vorschau


    Alle Mirrors untereinander kompatibel
    Folgen einzeln ladbar


    Download
    Geschützter Bereich - Bedanke dich beim Poster, um den Bereich sehen zu können
    Hier erfährst Du wie Du Dich bedanken kannst oder werde jetzt Premium Mitglied ab einer Spende von 5€ und erhalte sofortigen Zugriff auf den Downloadbereich!




    [Links sind nur für registrierte und aktivierte Nutzer sichtbar. Klicke hier um dich zu registrieren.]

    Ich wäre allen sehr dankbar, die mir gravierende Fehler in meinen Releases per PN melden

  4. 8 Benutzer sagen Danke:

    BlackIron (20. November 2016),doN1337 (9. September 2016),gerard123 (17. November 2016),krasserGaul (9. May 2016),Miriweth (13. August 2016),Terrorhasii.x3 (8. June 2016),Vivere (14. November 2016),xRei (28. May 2016)

Lesezeichen

Berechtigungen

  • Neue Themen erstellen: Nein
  • Themen beantworten: Nein
  • Anhänge hochladen: Nein
  • Beiträge bearbeiten: Nein
  •  

1 2 3 4 5 6 7 8 9 10 11 12 13 14 15 16 17 18 19 20 21 22 23 24 25 26 27 28 29 30 31 32 33 34 35 36 37 38 39 40 41 42 43 44 45 46 47 48 49 50 51 52 53 54 55 56 57 58 59 60 61 62 63 64 65 66 67 68 69 70 71 72 73 74 75 76 77 78 79 80 81 82 83 84 85 86 87 88 89 90 91 92 93 94 95 96 97 98 99 100 101 102 103 104 105 106 107 108 109 110 111 112 113 114 115 116 117 118 119 120 121 122 123 124 125 126 127 128 129 130 131 132 133 134 135 136 137 138 139 140 141 142 143 144 145 146 147 148 149 150 151 152 153 154 155 156 157 158