Ergebnis 1 bis 1 von 1

Thema: Amatsuki [Jap-Dub][Ger-Sub][400p][DVDRip]

Dieser Thread wurde noch nicht bewertet. Bewerte ihn doch, wenn er dir gefällt!
  1. #1
    United we Stand Avatar von 00Ryuji00
    Registriert seit
    Oct 2012
    Beiträge
    3.902
    Punkte
    99.823
    Errungenschaften:
    TomodachisGang LeaderHikikomoriTagger Amateur50000 Erfahrungspunkte

    Amatsuki [Jap-Dub][Ger-Sub][400p][DVDRip]


    Amatsuki
    あまつき






    Kurzbeschreibung:
    Zitat Zitat von AniSearch.com
    Geschichte ist kein starkes Fach von Tokidoki. Er muss selbst einen Museumsbesuch in einem High-tech Museum machen, um seine schlechten Noten aufzubessern. Nachdem er ein Auge durch ein virtuelles Monster in einer Edo-Perioden-Simulation verliert, bemerkt er, dass er das Spiel nicht mehr verlassen kann. Könnte es real sein?


    Spieldauer: 24min
    Genre: Abenteuer
    Nebengenres: Abenteuer, Action, Fantasy
    Jahr: 2008
    Sprache: Japanisch
    Untertitel: Deutsch
    Größe pro Folge:
    Episodenanzahl: 13/13
    Format: mp4
    Auflösung: 400p (16:9)
    Videocodec: x264 (AVC)
    Releasegruppe: C-Subs & NTFS
    Hoster: Share-Online, Uploaded


    MediaInfo
    Code:
    
    Format                                   : MPEG-4
    Format profile                           : Base Media
    Codec ID                                 : isom
    File size                                : 250 MiB
    Duration                                 : 23mn 30s
    Overall bit rate mode                    : Variable
    Overall bit rate                         : 1 486 Kbps
    Encoded date                             : UTC 2009-10-05 09:22:01
    Tagged date                              : UTC 2009-10-05 09:22:01
    
    Video
    ID                                       : 1
    Format                                   : AVC
    Format/Info                              : Advanced Video Codec
    Format profile                           : [email protected]
    Format settings, CABAC                   : Yes
    Format settings, ReFrames                : 2 frames
    Codec ID                                 : avc1
    Codec ID/Info                            : Advanced Video Coding
    Duration                                 : 23mn 30s
    Bit rate                                 : 1 291 Kbps
    Maximum bit rate                         : 4 255 Kbps
    Width                                    : 704 pixels
    Height                                   : 400 pixels
    Display aspect ratio                     : 16:9
    Frame rate mode                          : Constant
    Frame rate                               : 23.976 fps
    Color space                              : YUV
    Chroma subsampling                       : 4:2:0
    Bit depth                                : 8 bits
    Scan type                                : Progressive
    Bits/(Pixel*Frame)                       : 0.191
    Stream size                              : 217 MiB (87%)
    Writing library                          : x264 core 68 r1183M f21daff
    Encoding settings                        : cabac=1 / ref=2 / deblock=1:0:0 / analyse=0x3:0x113 / me=hex / subme=4 / psy_rd=0.0:0.0 / mixed_ref=0 / me_range=16 / chroma_me=1 / trellis=1 / 8x8dct=1 / cqm=0 / deadzone=21,11 / chroma_qp_offset=0 / threads=3 / nr=0 / decimate=1 / mbaff=0 / bframes=3 / b_pyramid=0 / b_adapt=1 / b_bias=0 / direct=1 / wpredb=1 / keyint=250 / keyint_min=25 / scenecut=40 / rc=2pass / bitrate=1291 / ratetol=1.0 / qcomp=0.60 / qpmin=10 / qpmax=51 / qpstep=4 / cplxblur=20.0 / qblur=0.5 / ip_ratio=1.40 / pb_ratio=1.30 / aq=1:1.00
    Encoded date                             : UTC 2009-10-05 08:48:31
    Tagged date                              : UTC 2009-10-05 09:22:39
    
    Audio
    ID                                       : 2
    Format                                   : AAC
    Format/Info                              : Advanced Audio Codec
    Format profile                           : LC
    Codec ID                                 : 40
    Duration                                 : 23mn 30s
    Bit rate mode                            : Variable
    Bit rate                                 : 192 Kbps
    Maximum bit rate                         : 199 Kbps
    Channel count                            : 2 channels
    Channel positions                        : Front: L R
    Sampling rate                            : 48.0 KHz
    Compression mode                         : Lossy
    Stream size                              : 32.3 MiB (13%)
    Encoded date                             : UTC 2009-10-05 09:22:35
    Tagged date                              : UTC 2009-10-05 09:22:39
    
    





    Geschützter Bereich - Bedanke dich beim Poster, um den Bereich sehen zu können
    Hier erfährst Du wie Du Dich bedanken kannst oder werde jetzt Premium Mitglied ab einer Spende von 5€ und erhalte sofortigen Zugriff auf den Downloadbereich!

    !!!Alle Anliegen bezüglich Uploads werden nur mit direktem Threadlink zum Angebot bearbeitet!!!

    Re-Uploadanfragen nur per PN - Ihr könnt mir auch Listen schicken

    Re-Uploads erfolgen meist innerhalb 24h, kann aber auch bis zu 7 Tage dauern

    [Links sind nur für registrierte und aktivierte Nutzer sichtbar. Klicke hier um dich zu registrieren.] | [Links sind nur für registrierte und aktivierte Nutzer sichtbar. Klicke hier um dich zu registrieren.] | >[Links sind nur für registrierte und aktivierte Nutzer sichtbar. Klicke hier um dich zu registrieren.]<
    [Links sind nur für registrierte und aktivierte Nutzer sichtbar. Klicke hier um dich zu registrieren.]

  2. 9 Benutzer sagen Danke:

    Akio (23. November 2015),Aluaran (11. August 2015),bloodyfloh (11. August 2015),haltdiefresse (15. November 2015),Kokujou (11. August 2015),midnighter (12. August 2015),prinzvegeta (2. September 2015),SerienStream (30. August 2015),Tidus18 (21. March 2016)

Lesezeichen

Berechtigungen

  • Neue Themen erstellen: Nein
  • Themen beantworten: Nein
  • Anhänge hochladen: Nein
  • Beiträge bearbeiten: Nein
  •  

1 2 3 4 5 6 7 8 9 10 11 12 13 14 15 16 17 18 19 20 21 22 23 24 25 26 27 28 29 30 31 32 33 34 35 36 37 38 39 40 41 42 43 44 45 46 47 48 49 50 51 52 53 54 55 56 57 58 59 60 61 62 63 64 65 66 67 68 69 70 71 72 73 74 75 76 77 78 79 80 81 82 83 84 85 86 87 88 89 90 91 92 93 94 95 96 97 98 99 100 101 102 103 104 105 106 107 108 109 110 111 112 113 114 115 116 117 118 119 120 121 122 123 124 125 126 127 128 129 130 131 132 133 134 135 136 137 138 139 140 141 142 143 144 145 146 147 148 149 150 151 152 153 154 155 156 157 158