Ergebnis 1 bis 1 von 1

Thema: Angel Beats!: Hell's Kitchen [Jap-Dub][Ger-Sub][720p][HDTV] - Chinurarete

Dieser Thread wurde noch nicht bewertet. Bewerte ihn doch, wenn er dir gefällt!
  1. #1
    Avatar von Stoneman
    Registriert seit
    Jun 2013
    Ort
    Sachsen
    Beiträge
    324
    Punkte
    5.972
    Errungenschaften:
    TomodachisTagger Amateur5000 ErfahrungspunkteHikikomori

    Angel Beats!: Hell's Kitchen [Jap-Dub][Ger-Sub][720p][HDTV] - Chinurarete


    Angel Beats!: Hell's Kitchen
    エンジェルビーツ!: Hell's Kitchen






    Kurzbeschreibung:
    Zitat Zitat von AniSearch.com
    3. OVA zur Serie


    Spieldauer: 30min
    Genre: Komödie
    Nebengenres: Action, Komödie
    Jahr: 2015
    Sprache: Japanisch
    Untertitel: Deutsch
    Größe pro Folge: ~523 MiB
    Episodenanzahl: 1/1
    Format: MP4
    Auflösung: 720p (16:9)
    Videocodec: x264 (AVC)
    Audiocodec: AAC
    Releasegruppe: Chinurarete
    Hoster: Uploaded,Share-Online


    MediaInfo

    Code:
    
    Format                                   : MPEG-4
    Format profile                           : Base Media
    Codec ID                                 : isom
    File size                                : 523 MiB
    Duration                                 : 29mn 38s
    Overall bit rate mode                    : Variable
    Overall bit rate                         : 2 467 Kbps
    Encoded date                             : UTC 2015-12-25 11:18:29
    Tagged date                              : UTC 2015-12-25 11:18:29
    Writing application                      : Yamb 2.1.0.0 [http://yamb.unite-video.com]
    
    Video
    ID                                       : 1
    Format                                   : AVC
    Format/Info                              : Advanced Video Codec
    Format profile                           : [email protected]
    Format settings, CABAC                   : Yes
    Format settings, ReFrames                : 9 frames
    Codec ID                                 : avc1
    Codec ID/Info                            : Advanced Video Coding
    Duration                                 : 29mn 38s
    Bit rate                                 : 2 271 Kbps
    Maximum bit rate                         : 14.1 Mbps
    Width                                    : 1 280 pixels
    Height                                   : 720 pixels
    Display aspect ratio                     : 16:9
    Frame rate mode                          : Constant
    Frame rate                               : 23.976 fps
    Color space                              : YUV
    Chroma subsampling                       : 4:2:0
    Bit depth                                : 8 bits
    Scan type                                : Progressive
    Bits/(Pixel*Frame)                       : 0.103
    Stream size                              : 481 MiB (92%)
    Title                                    : [email protected]
    Writing library                          : x264 core 142 r2409kMod d6b4e63
    Encoding settings                        : cabac=1 / ref=9 / deblock=1:0:0 / analyse=0x1:0x131 / me=umh / subme=11 / psy=1 / fade_compensate=0.00 / psy_rd=1.00:0.00 / mixed_ref=1 / me_range=60 / chroma_me=1 / trellis=2 / 8x8dct=0 / cqm=0 / deadzone=21,11 / fast_pskip=0 / chroma_qp_offset=-2 / threads=18 / lookahead_threads=4 / sliced_threads=0 / nr=0 / decimate=0 / interlaced=0 / bluray_compat=0 / constrained_intra=0 / fgo=0 / bframes=16 / b_pyramid=2 / b_adapt=2 / b_bias=0 / direct=3 / weightb=1 / open_gop=0 / weightp=2 / keyint=250 / keyint_min=23 / scenecut=40 / intra_refresh=0 / rc_lookahead=250 / rc=crf / mbtree=1 / crf=16.0000 / qcomp=0.75 / qpmin=0 / qpmax=69 / qpstep=4 / ip_ratio=1.40 / aq=2:0.86
    Encoded date                             : UTC 2015-12-20 17:31:25
    Tagged date                              : UTC 2015-12-25 11:18:44
    Color range                              : Limited
    Color primaries                          : BT.709
    Transfer characteristics                 : BT.709
    Matrix coefficients                      : BT.709
    
    Audio
    ID                                       : 2
    Format                                   : AAC
    Format/Info                              : Advanced Audio Codec
    Format profile                           : LC
    Codec ID                                 : 40
    Duration                                 : 29mn 38s
    Bit rate mode                            : Variable
    Bit rate                                 : 192 Kbps
    Maximum bit rate                         : 235 Kbps
    Channel(s)                               : 2 channels
    Channel positions                        : Front: L R
    Sampling rate                            : 48.0 KHz
    Compression mode                         : Lossy
    Stream size                              : 40.8 MiB (8%)
    Encoded date                             : UTC 2015-12-25 11:18:35
    Tagged date                              : UTC 2015-12-25 11:18:44
    
    





    Geschützter Bereich - Bedanke dich beim Poster, um den Bereich sehen zu können
    Hier erfährst Du wie Du Dich bedanken kannst oder werde jetzt Premium Mitglied ab einer Spende von 5€ und erhalte sofortigen Zugriff auf den Downloadbereich!

    [Links sind nur für registrierte und aktivierte Nutzer sichtbar. Klicke hier um dich zu registrieren.]
    Geändert von Stoneman (26. August 2016 um 01:05 Uhr)



    [Links sind nur für registrierte und aktivierte Nutzer sichtbar. Klicke hier um dich zu registrieren.]

    ich lade jetzt auch auf SO hoch, bei anfragen bitte melden. ansonsten kommt das mit der zeit automatisch bei meinen upps

  2. 4 Benutzer sagen Danke:

    ChrissiPinkman (14. August 2016),Christian0274 (26. July 2016),LawMugen (22. July 2016),Sergej10 (3. October 2016)

Lesezeichen

Berechtigungen

  • Neue Themen erstellen: Nein
  • Themen beantworten: Nein
  • Anhänge hochladen: Nein
  • Beiträge bearbeiten: Nein
  •  

1 2 3 4 5 6 7 8 9 10 11 12 13 14 15 16 17 18 19 20 21 22 23 24 25 26 27 28 29 30 31 32 33 34 35 36 37 38 39 40 41 42 43 44 45 46 47 48 49 50 51 52 53 54 55 56 57 58 59 60 61 62 63 64 65 66 67 68 69 70 71 72 73 74 75 76 77 78 79 80 81 82 83 84 85 86 87 88 89 90 91 92 93 94 95 96 97 98 99 100 101 102 103 104 105 106 107 108 109 110 111 112 113 114 115 116 117 118 119 120 121 122 123 124 125 126 127 128 129 130 131 132 133 134 135 136 137 138 139 140 141 142 143 144 145 146 147 148 149 150 151 152 153 154 155 156 157 158