Ergebnis 1 bis 1 von 1

Thema: Ao Haru Ride [Ger Sub][Jap Dub][720p][]HDTV]

Dieser Thread wurde noch nicht bewertet. Bewerte ihn doch, wenn er dir gefällt!
  1. #1
    Erfahrener Otaku Avatar von Kajiro
    Registriert seit
    Mar 2014
    Ort
    Irgendwo im Nirgendwo
    Beiträge
    213
    Punkte
    10.403
    Errungenschaften:
    10000 ErfahrungspunkteHikikomori

    Ao Haru Ride [Ger Sub][Jap Dub][720p][]HDTV]


    Ao Haru Ride





    Kurzbeschreibung:
    Yoshioka Futaba beschließt, ihr »süßes Mädchen«-Image loszuwerden! In der Mittelschule wurde sie von ihren Mitschülerinnen wegen ihres hübschen Äußeren verachtet. Ein Missverständnis hinderte sie daran, ihrem Schwarm Tanaka ihre Liebe zu gestehen.

    Nun kommt sie auf die High School - der ideale Zeitpunkt, sich neu zu erfinden! Vorbei sind die Zeiten der süßen Yoshioka!! Von nun an will sie sich so wenig mädchenhaft wie möglich verhalten … Ihr Plan verläuft bestens, bis sie Tanaka wieder begegnet. Wird ihre unerfüllte Liebe von damals eine zweite Chance erhalten?


    Sprache: Japanisch
    Untertitel: Deutsch
    Folgen:12/12
    Größe: 215MB
    Format: MP4
    Auflösung: 1280x720
    Genre: Liebesdrama
    Sub Gruppe: [P-A]


    Datei Info:
    Spoiler
    Video
    ID : 1
    Format : AVC
    Format/Info : Advanced Video Codec
    Format profile : [email protected]
    Format settings, CABAC : Yes
    Format settings, ReFrames : 4 frames
    Codec ID : avc1
    Codec ID/Info : Advanced Video Coding
    Duration : 23mn 41s
    Bit rate : 1 095 Kbps
    Maximum bit rate : 5 829 Kbps
    Width : 1 280 pixels
    Height : 720 pixels
    Display aspect ratio : 16:9
    Frame rate mode : Constant
    Frame rate : 23.976 fps
    Color space : YUV
    Chroma subsampling : 4:2:0
    Bit depth : 8 bits
    Scan type : Progressive
    Bits/(Pixel*Frame) : 0.050
    Stream size : 186 MiB (87%)
    Title : ˆ
    Writing library : x264 core 125 r2200 999b753


    Audio
    ID : 2
    Format : AAC
    Format/Info : Advanced Audio Codec
    Format profile : LC
    Codec ID : 40
    Duration : 23mn 42s
    Bit rate mode : Variable
    Bit rate : 153 Kbps
    Maximum bit rate : 195 Kbps
    Channel(s) : 2 channels
    Channel positions : Front: L R
    Sampling rate : 44.1 KHz
    Compression mode : Lossy
    Stream size : 26.0 MiB (12%)
    Encoded date : UTC 2014-07-09 09:14:32
    Tagged date : UTC 2014-07-09 09:14:33






    Geschützter Bereich - Bedanke dich beim Poster, um den Bereich sehen zu können
    Hier erfährst Du wie Du Dich bedanken kannst oder werde jetzt Premium Mitglied ab einer Spende von 5€ und erhalte sofortigen Zugriff auf den Downloadbereich!


    Inaktiver Uploader!

    Alle Re-Upload-Anfragen öffentlich im [Links sind nur für registrierte und aktivierte Nutzer sichtbar. Klicke hier um dich zu registrieren.] posten!

  2. 78 Benutzer sagen Danke:

    Anzeigen

    Aizen-Sama (20. April 2016),Akumu_inactive (1. January 2015),andiB (21. April 2015),Animewolf (11. November 2014),bohne (15. February 2016),Chrissi89 (12. April 2015),Cony (24. January 2015),Ðāɱøȵ™ (27. November 2014),DaBerhenne (18. June 2015),danielbern (22. October 2014),Dark Justice (29. September 2014),darksera (4. January 2015),data_ghoul (2. October 2014),Doitzu (12. December 2014),Drachengott (1. October 2014),Dylan (2. December 2014),exo (5. December 2014),gotjack11 (12. November 2014),hacime (2. February 2015),hadis1000 (23. January 2015),Haiyato (17. November 2014),Haku94 (4. March 2015),huntercity (7. September 2015),isiprimax (20. November 2014),Jeycop (4. March 2015),Kaori (15. February 2016),Kartox (2. January 2015),Knochenjonny (10. October 2014),krasserGaul (13. December 2015),krausi22 (5. March 2015),lair1995 (5. March 2015),luko8000 (2. March 2015),mar3el (27. December 2014),marco.xf (23. November 2014),Merkartor (28. February 2015),Miiko_Chan (5. December 2014),Miyux (17. January 2015),Morie176 (11. March 2015),MrThief (21. June 2015),napalmklaus (29. September 2014),Naru-Chan (22. December 2014),neocx (26. February 2015),NewPrime (7. December 2014),nickssystem (21. November 2014),Noire16 (8. January 2016),Osath (15. December 2014),RaienryuuRgr (5. January 2015),Raivenstar (12. January 2015),RapidKill (2. October 2014),Raziel (25. March 2016),Red (1. October 2014),rekiznuh1 (27. April 2015),Rena (11. February 2015),Ronae (29. September 2014),Ryu (15. March 2015),Sabii23_inactive (31. January 2015),SerienStream (3. November 2014),Shintaro (22. July 2015),Shinu Luna (14. December 2015),SL4V3R (5. January 2015),Smitecrawler (20. October 2014),SnowCat (1. October 2014),Spark (5. March 2015),speik128 (7. February 2015),ssj3shad (6. October 2014),Stones (14. March 2015),Suigetsu (29. September 2014),Tekk (29. September 2014),ThreeeDog (26. June 2015),Tidus18 (15. July 2015),tsukiShimizu (23. November 2014),tzuio (11. November 2014),Valetinese (30. September 2014),Victor2901 (5. January 2015),videoseven (16. October 2014),WayneBrady (11. May 2015),xtsiux123 (16. December 2014),XxXYurrippeXxX (25. March 2015)

Lesezeichen

Berechtigungen

  • Neue Themen erstellen: Nein
  • Themen beantworten: Nein
  • Anhänge hochladen: Nein
  • Beiträge bearbeiten: Nein
  •  

1 2 3 4 5 6 7 8 9 10 11 12 13 14 15 16 17 18 19 20 21 22 23 24 25 26 27 28 29 30 31 32 33 34 35 36 37 38 39 40 41 42 43 44 45 46 47 48 49 50 51 52 53 54 55 56 57 58 59 60 61 62 63 64 65 66 67 68 69 70 71 72 73 74 75 76 77 78 79 80 81 82 83 84 85 86 87 88 89 90 91 92 93 94 95 96 97 98 99 100 101 102 103 104 105 106 107 108 109 110 111 112 113 114 115 116 117 118 119 120 121 122 123 124 125 126 127 128 129 130 131 132 133 134 135 136 137 138 139 140 141 142 143 144 145 146 147 148 149 150 151 152 153 154 155 156 157 158