Ergebnis 1 bis 2 von 2

Thema: Ao Haru Ride [GerSub][JapDub][720p][HDTV]

Dieser Thread wurde noch nicht bewertet. Bewerte ihn doch, wenn er dir gefällt!
  1. #1
    Gesperrt
    Registriert seit
    Oct 2013
    Ort
    Milchstraße
    Beiträge
    565
    Punkte
    10.833
    Errungenschaften:
    TomodachisGang LeaderTagger Profi10000 ErfahrungspunkteHikikomori

    Ao Haru Ride [GerSub][JapDub][720p][HDTV]

    Ao Haru Ride
    アオハライド
    Blue Spring Ride


    [Links sind nur für registrierte und aktivierte Nutzer sichtbar. Klicke hier um dich zu registrieren.]


    An der neuen Highschool angekommen möchte Futaba diese Chance nutzen neu anzufangen. Bisher hat sie es nicht geschafft ihre Liebe ihrem Schwarm Kou zu gestehen und außerdem zieht sie mit ihrer allzusüßen Art den Neid ihrer Mitschülerinnen auf sich. Doch wie es das Schicksal so will trifft sie Kou wieder und erfährt, dass er damals ebenfalls in sie verliebt war.
    Doch wie soll es nun mit den beiden weitergehen?

    Genre: Comedy Drama Romance School Shoujou Slice_of_Life
    Episoden: 12/12
    Format: .mp4
    Resolution: 1280 x 720
    Sprache: Japanisch
    Untertitel: Deutsch
    Größe pro Folge: ca. 250 MB
    Releaser: [L-S]
    Hoster: Share-Online.biz; Uploaded.net


    Spoiler
    Format : MPEG-4
    Länge : 257 MiB for 23min 0s 105ms

    Video #0
    Format : AVC
    Bitrate : 1 402 Kbps
    maximale Bitrate : 5 826 Kbps
    Auslösung : 1280 x 720; 23.976 fps


    Audio #0 :
    Format : AAC
    Infos : 2 Kanäle, 44,1 KHz
    Bitraten-Modus : variabel
    Bitrate : 128 Kbps
    maximale Bitrate : 139 Kbps
    Language : Japanisch


    Geschützter Bereich - Bedanke dich beim Poster, um den Bereich sehen zu können
    Hier erfährst Du wie Du Dich bedanken kannst oder werde jetzt Premium Mitglied ab einer Spende von 5€ und erhalte sofortigen Zugriff auf den Downloadbereich!
    Geändert von Infi (24. May 2016 um 00:35 Uhr)

  2. 73 Benutzer sagen Danke:

    Anzeigen

    Accelerator95_inactive (7. July 2015),Aizen-Sama (20. April 2016),Aluaran (30. March 2015),assa (5. February 2016),Audifreak91 (9. July 2016),Azuya (21. June 2015),BlackMekkor (10. September 2015),Bloodyair (25. October 2015),Cloud9019 (29. March 2015),Denrage (3. April 2015),Deshi25 (22. March 2016),Drazcan (19. September 2016),eraz (30. March 2015),exterminus (29. March 2015),famoon (11. April 2016),iCapuz (22. August 2016),IRazziCz (10. July 2016),JeNnI (25. February 2016),Kartox (30. March 2015),KelioN (24. January 2016),krasserGaul (29. March 2015),kybant (26. April 2016),lair1995 (19. May 2015),LawrenceKraft (31. March 2015),Ley0304 (11. May 2015),Magikarp (13. February 2016),Melijal (9. April 2015),Miauundso (25. October 2015),midnighter (29. March 2015),Miyux (21. July 2016),Nanatzusaya (30. March 2015),nexeus89 (18. March 2016),Noire16 (8. January 2016),Numani (16. March 2016),OtakuTim (11. January 2016),Otonashi Yuzuru (2. May 2015),parad0xr (2. July 2016),Pazu (1. May 2016),peniku8 (15. March 2016),prinzvegeta (23. October 2015),Raivenstar (7. May 2015),Rawrlex (11. April 2015),realmadridcf (5. December 2015),rekiznuh1 (27. April 2015),Rittai (28. April 2016),SagSwag (13. November 2015),Sandy7580 (24. July 2015),SantaKlaus (12. January 2016),SciTeC (7. August 2015),Sebi859 (15. October 2016),sebmori (9. April 2015),SetsunaKurokiri (23. June 2015),ShinobuGold (6. April 2015),Shintaro (22. July 2015),Shugyosha (29. March 2015),Skully_88 (20. February 2016),SnowCat (14. April 2015),ssj3shad (23. September 2016),Sylux (20. September 2015),th3cr0w (6. May 2015),The_Iron (24. January 2016),thomas (11. March 2016),THOR543 (30. October 2015),ThreeeDog (26. June 2015),Tidus18 (13. August 2015),tmcx (11. October 2015),tokyodrift (7. December 2015),Tomoya (28. January 2016),torusso12 (29. March 2015),Varkoo (4. April 2015),Wölfchen (29. March 2015),YamiXGhost (29. March 2015),yuudai (6. April 2015)

  3. #2
    United we Stand Avatar von 00Ryuji00
    Registriert seit
    Oct 2012
    Beiträge
    3.902
    Punkte
    99.823
    Errungenschaften:
    TomodachisGang LeaderHikikomoriTagger Amateur50000 Erfahrungspunkte

    AW: Ao Haru Ride [GerSub][JapDub][720p][HDTV]


    Ao Haru Ride
    アオハライド
    Blue Spring Ride






    Kurzbeschreibung:
    Zitat Zitat von AniSearch.com
    Die Schülerin Yoshioka Futaba möchte mit dem Wechsel von der Mittel- zur Oberschule ihren alten Lebensabschnitt abschließen, da sie bislang aufgrund ihrer attraktiven Erscheinung dem Neid ihrer Mitschüler ausgesetzt war und oftmals ausgeschlossen wurde. Sie nimmt sich vor an ihrem Auftreten zu arbeiten, um erwachsener und reifer auf ihre Mitmenschen zu wirken. Doch als sie auf ihrer neuen Schule ihren Schwarm und ehemaligen Mitschüler Tanaka trifft, fragt sie sich, ob ihre Liebe zu ihm noch eine Zukunft hat.


    Spieldauer: 24min
    Genre: Liebesdrama
    Nebengenres: Alltagsleben, Drama, Komödie, Romanze
    Jahr: 2014
    Sprache: Japanisch
    Untertitel: Deutsch
    Größe pro Folge: ~283 MiB
    Episodenanzahl: 12/12
    Format: MP4
    Auflösung: 720p (16:9)
    Videocodec: x264 (AVC)
    Audiocodec: AAC
    Releasegruppe: L-S
    Hoster: Share-Online, Uploaded


    MediaInfo
    Code:
    
    Format                                   : MPEG-4
    Format profile                           : Base Media
    Codec ID                                 : isom
    File size                                : 283 MiB
    Duration                                 : 23mn 42s
    Overall bit rate mode                    : Variable
    Overall bit rate                         : 1 668 Kbps
    Encoded date                             : UTC 2014-12-06 22:11:45
    Tagged date                              : UTC 2014-12-06 22:11:45
    
    Video
    ID                                       : 1
    Format                                   : AVC
    Format/Info                              : Advanced Video Codec
    Format profile                           : [email protected]
    Format settings, CABAC                   : Yes
    Format settings, ReFrames                : 6 frames
    Codec ID                                 : avc1
    Codec ID/Info                            : Advanced Video Coding
    Duration                                 : 23mn 42s
    Bit rate                                 : 1 537 Kbps
    Maximum bit rate                         : 5 485 Kbps
    Width                                    : 1 280 pixels
    Height                                   : 720 pixels
    Display aspect ratio                     : 16:9
    Frame rate mode                          : Constant
    Frame rate                               : 23.976 fps
    Color space                              : YUV
    Chroma subsampling                       : 4:2:0
    Bit depth                                : 8 bits
    Scan type                                : Progressive
    Bits/(Pixel*Frame)                       : 0.070
    Stream size                              : 261 MiB (92%)
    Writing library                          : x264 core 142 r2431+42 c69a006 tMod [[email protected] X86_64]
    Encoding settings                        : cabac=1 / ref=6 / deblock=1:0:0 / analyse=0x3:0x133 / me=hex / subme=7 / psy=1 / fade_compensate=0.00 / psy_rd=1.00:0.00 / mixed_ref=1 / me_range=16 / chroma_me=1 / trellis=1 / 8x8dct=1 / cqm=0 / deadzone=21,11 / fast_pskip=1 / chroma_qp_offset=-2 / threads=3 / lookahead_threads=1 / sliced_threads=0 / nr=0 / decimate=0 / interlaced=0 / bluray_compat=0 / constrained_intra=0 / fgo=0 / bframes=4 / b_pyramid=2 / b_adapt=1 / b_bias=0 / direct=3 / weightb=1 / open_gop=0 / weightp=2 / keyint=250 / keyint_min=23 / scenecut=40 / intra_refresh=0 / rc_lookahead=40 / rc=crf / mbtree=1 / crf=18.0000 / qcomp=0.60 / qpmin=0:0:0 / qpmax=69:69:69 / qpstep=4 / vbv_maxrate=2560 / vbv_bufsize=5120 / crf_max=0.0 / nal_hrd=none / filler=0 / ip_ratio=1.40 / aq=4:0.80 / aq-sensitivity=10.00 / aq-factor=1.00:1.00:1.00 / aq2=0 / aq3=0
    Encoded date                             : UTC 2014-12-06 21:56:46
    Tagged date                              : UTC 2014-12-06 22:12:00
    Color range                              : Limited
    Color primaries                          : BT.709
    Transfer characteristics                 : BT.709
    Matrix coefficients                      : BT.709
    
    Audio
    ID                                       : 2
    Format                                   : AAC
    Format/Info                              : Advanced Audio Codec
    Format profile                           : LC
    Codec ID                                 : 40
    Duration                                 : 23mn 42s
    Bit rate mode                            : Variable
    Bit rate                                 : 128 Kbps
    Maximum bit rate                         : 140 Kbps
    Channel(s)                               : 2 channels
    Channel positions                        : Front: L R
    Sampling rate                            : 44.1 KHz
    Compression mode                         : Lossy
    Stream size                              : 21.7 MiB (8%)
    Encoded date                             : UTC 2014-12-06 22:11:50
    Tagged date                              : UTC 2014-12-06 22:12:00
    
    





    Geschützter Bereich - Bedanke dich beim Poster, um den Bereich sehen zu können
    Hier erfährst Du wie Du Dich bedanken kannst oder werde jetzt Premium Mitglied ab einer Spende von 5€ und erhalte sofortigen Zugriff auf den Downloadbereich!


    [Links sind nur für registrierte und aktivierte Nutzer sichtbar. Klicke hier um dich zu registrieren.]
    !!!Alle Anliegen bezüglich Uploads werden nur mit direktem Threadlink zum Angebot bearbeitet!!!

    Re-Uploadanfragen nur per PN - Ihr könnt mir auch Listen schicken

    Re-Uploads erfolgen meist innerhalb 24h, kann aber auch bis zu 7 Tage dauern

    [Links sind nur für registrierte und aktivierte Nutzer sichtbar. Klicke hier um dich zu registrieren.] | [Links sind nur für registrierte und aktivierte Nutzer sichtbar. Klicke hier um dich zu registrieren.] | >[Links sind nur für registrierte und aktivierte Nutzer sichtbar. Klicke hier um dich zu registrieren.]<
    [Links sind nur für registrierte und aktivierte Nutzer sichtbar. Klicke hier um dich zu registrieren.]

  4. 7 Benutzer sagen Danke:

    Asuka Langley (19. April 2016),Griever (12. April 2016),iCapuz (22. August 2016),parad0xr (2. July 2016),Pazu (1. May 2016),sabs0686 (6. November 2016),Sebi859 (15. October 2016)

Lesezeichen

Berechtigungen

  • Neue Themen erstellen: Nein
  • Themen beantworten: Nein
  • Anhänge hochladen: Nein
  • Beiträge bearbeiten: Nein
  •  

1 2 3 4 5 6 7 8 9 10 11 12 13 14 15 16 17 18 19 20 21 22 23 24 25 26 27 28 29 30 31 32 33 34 35 36 37 38 39 40 41 42 43 44 45 46 47 48 49 50 51 52 53 54 55 56 57 58 59 60 61 62 63 64 65 66 67 68 69 70 71 72 73 74 75 76 77 78 79 80 81 82 83 84 85 86 87 88 89 90 91 92 93 94 95 96 97 98 99 100 101 102 103 104 105 106 107 108 109 110 111 112 113 114 115 116 117 118 119 120 121 122 123 124 125 126 127 128 129 130 131 132 133 134 135 136 137 138 139 140 141 142 143 144 145 146 147 148 149 150 151 152 153 154 155 156 157 158