Ergebnis 1 bis 1 von 1

Thema: Ao no Kanata no Four Rhythm [Laufend][Jap-Dub][Ger-Sub][720p-10Bit][HDTV] - FA-Subs

Dieser Thread wurde durchschnittlich mit 5 Sternen bewertet, wobei 1 Stern die schlechteste und 5 Sterne die beste Bewertung ist. Es haben insgesamt 1 Mitglieder eine Bewertung abgegeben.

  1. #1
    Uploader Avatar von Filbo11
    Registriert seit
    Jan 2015
    Beiträge
    931
    Punkte
    17.281
    Errungenschaften:
    TomodachisErste Gruppe1 Jahr registriertCreated Album picturesTagger First Class

    Ao no Kanata no Four Rhythm [Laufend][Jap-Dub][Ger-Sub][720p-10Bit][HDTV] - FA-Subs

    Ao no Kanata no Four Rhythm
    蒼の彼方のフォーリズム
    Four Rhythm Across the Blue




    Beschreibung

    Stell dir vor, du lebst in einer Welt, in der Fliegen ohne Motoren oder Federn möglich wäre. Im einer zukünftigen Welt ist dies durch die Entdeckung von Anti-Gravitonen Realität geworden. Auf einem Archipel, das aus vier Inseln besteht und sich weit südlich von Japan befindet, wurden die sogenannten Grash, Anti-Gravitations-Schuhe, erfunden. Durch die neu entdeckten Möglichkeiten entstand ein neuer Sport namens Flying Circus.

    Format: mkv
    Dauer: ca. 24 min
    Größe: ca. 269-420 MB
    Sprache: Japanisch
    Untertitel: Deutsch
    Group: [FutariAlone-Subs]
    Hoster: Uploaded.net & Share-Online.biz
    kein PW


    Screenshots & MediaInfo

    Spoiler
    [Links sind nur für registrierte und aktivierte Nutzer sichtbar. Klicke hier um dich zu registrieren.]

    Code:
    General
    Unique ID                   : 173731661448641585318336598217885553128 (0x82B3803B746E91E49F802D6AC3F111E8)
    Complete name               : E:\[FA-Subs] Ao no Kanata no Four Rhythm - 01\[FA-Subs] Ao no Kanata no Four Rhythm - 01.mkv
    Format                      : Matroska
    Format version              : Version 4 / Version 2
    File size                   : 392 MiB
    Duration                    : 23mn 54s
    Overall bit rate            : 2 291 Kbps
    Encoded date                : UTC 2016-02-25 22:19:29
    Writing application         : mkvmerge v8.2.0 ('World of Adventure') 64bit
    Writing library             : libebml v1.3.1 + libmatroska v1.4.2
    Attachments                 : CrimewaveBB.ttf / Font95.TTF / GandhiSans-Bold.otf / GandhiSans-BoldItalic.otf / I_Did_This.ttf / KOZGOPRO-MEDIUM-ENG.ttf / leeluisl.ttf / LiberationSans-Regular.ttf / peaangedawn.ttf / pencilCASE.ttf / Sahara.ttf / SweetAsCandy.ttf / ARNORG.TTF / AveriaSerif-Light.ttf / Belleza-Regular.ttf / chalkdust.ttf / Chubby Gothic.ttf
    
    Video
    ID                          : 1
    Format                      : AVC
    Format/Info                 : Advanced Video Codec
    Format profile              : High [email protected]
    Format settings, CABAC      : Yes
    Format settings, ReFrames   : 16 frames
    Codec ID                    : V_MPEG4/ISO/AVC
    Duration                    : 23mn 54s
    Bit rate                    : 2 088 Kbps
    Width                       : 1 280 pixels
    Height                      : 720 pixels
    Display aspect ratio        : 16:9
    Frame rate mode             : Constant
    Frame rate                  : 23.976 (24000/1001) fps
    Color space                 : YUV
    Chroma subsampling          : 4:2:0
    Bit depth                   : 10 bits
    Scan type                   : Progressive
    Bits/(Pixel*Frame)          : 0.094
    Stream size                 : 357 MiB (91%)
    Writing library             : x264 core 142 r2431+42 c69a006 tMod [[email protected] X86_64]
    Encoding settings           : cabac=1 / ref=16 / deblock=1:-1:-1 / analyse=0x3:0x133 / me=umh / subme=11 / psy=1 / fade_compensate=0.50 / psy_rd=0.85:0.00 / mixed_ref=1 / me_range=32 / chroma_me=1 / trellis=2 / 8x8dct=1 / cqm=0 / deadzone=21,11 / fast_pskip=0 / chroma_qp_offset=-2 / threads=12 / lookahead_threads=3 / sliced_threads=0 / nr=0 / decimate=1 / interlaced=0 / bluray_compat=0 / constrained_intra=0 / fgo=0 / bframes=16 / b_pyramid=2 / b_adapt=2 / b_bias=0 / direct=3 / weightb=1 / open_gop=0 / weightp=2 / keyint=250 / keyint_min=24 / scenecut=40 / intra_refresh=0 / rc_lookahead=60 / rc=crf / mbtree=1 / crf=16.0000 / qcomp=0.65 / qpmin=0:0:0 / qpmax=81:81:81 / qpstep=4 / ip_ratio=1.40 / aq=3:0.75 / aq-sensitivity=10.00 / aq-factor=1.00:1.00:1.00 / aq2=0 / aq3=0
    Language                    : Japanese
    Default                     : Yes
    Forced                      : No
    Color range                 : Limited
    Matrix coefficients         : BT.709
    
    Audio
    ID                          : 2
    Format                      : AAC
    Format/Info                 : Advanced Audio Codec
    Format profile              : LC
    Codec ID                    : A_AAC
    Duration                    : 23mn 54s
    Bit rate                    : 192 Kbps
    Channel(s)                  : 2 channels
    Channel positions           : Front: L R
    Sampling rate               : 48.0 KHz
    Frame rate                  : 46.875 fps (1024 spf)
    Compression mode            : Lossy
    Stream size                 : 32.3 MiB (8%)
    Language                    : Japanese
    Default                     : Yes
    Forced                      : No
    
    Text
    ID                          : 3
    Format                      : ASS
    Codec ID                    : S_TEXT/ASS
    Codec ID/Info               : Advanced Sub Station Alpha
    Duration                    : 23mn 50s
    Bit rate                    : 4 176 bps
    Count of elements           : 3242
    Compression mode            : Lossless
    Stream size                 : 729 KiB (0%)
    Language                    : German
    Default                     : Yes
    Forced                      : No
    
    Menu
    00:00:00.000                : :Intro
    00:00:45.963                : :Part A
    00:14:19.901                : :Part B
    00:22:14.917                : :OP
    00:23:44.882                : :Preview


    Alle Mirrors untereinander kompatibel
    Folgen einzeln ladbar
    Folge 5/12 online


    Download
    Geschützter Bereich - Bedanke dich beim Poster, um den Bereich sehen zu können
    Hier erfährst Du wie Du Dich bedanken kannst oder werde jetzt Premium Mitglied ab einer Spende von 5€ und erhalte sofortigen Zugriff auf den Downloadbereich!


    [Links sind nur für registrierte und aktivierte Nutzer sichtbar. Klicke hier um dich zu registrieren.]

    Ich wäre allen sehr dankbar, die mir gravierende Fehler in meinen Releases per PN melden

  2. 11 Benutzer sagen Danke:

    Ace360 (4. September 2016),chopper23 (16. April 2016),DomStrike (30. April 2016),Flowbow (7. November 2016),janik2009 (27. May 2016),kashmael (17. April 2016),Killua (16. April 2016),Kushikime (7. May 2016),Ronae (26. April 2016),Tsunderekrieger (2. October 2016),Windwusel (16. April 2016)

Stichworte

Lesezeichen

Berechtigungen

  • Neue Themen erstellen: Nein
  • Themen beantworten: Nein
  • Anhänge hochladen: Nein
  • Beiträge bearbeiten: Nein
  •  

1 2 3 4 5 6 7 8 9 10 11 12 13 14 15 16 17 18 19 20 21 22 23 24 25 26 27 28 29 30 31 32 33 34 35 36 37 38 39 40 41 42 43 44 45 46 47 48 49 50 51 52 53 54 55 56 57 58 59 60 61 62 63 64 65 66 67 68 69 70 71 72 73 74 75 76 77 78 79 80 81 82 83 84 85 86 87 88 89 90 91 92 93 94 95 96 97 98 99 100 101 102 103 104 105 106 107 108 109 110 111 112 113 114 115 116 117 118 119 120 121 122 123 124 125 126 127 128 129 130 131 132 133 134 135 136 137 138 139 140 141 142 143 144 145 146 147 148 149 150 151 152 153 154 155 156 157 158