Ergebnis 1 bis 4 von 4

Thema: Arslan Senki: Fuujin Ranbu [Laufend][Jap-Dub][Ger-Sub][720p][HDTV]- AnikiHD

Dieser Thread wurde noch nicht bewertet. Bewerte ihn doch, wenn er dir gefällt!
  1. #1
    Kami-sama Avatar von galudo
    Registriert seit
    Mar 2015
    Beiträge
    1.371
    Punkte
    26.032
    Errungenschaften:
    TomodachisTagger ProfiHyperaktivSenpaiGang Leader

    Arslan Senki: Fuujin Ranbu [Laufend][Jap-Dub][Ger-Sub][720p][HDTV]- AnikiHD

    Arslan Senki: Fuujin Ranbu
    アルスラーン戦記 風塵乱舞
    The Heroic Legend of Arslan: Dust Storm Dance




    Kurzbeschreibung:
    Zitat Zitat von ANN
    Nachdem sie die Schlachten um die königliche Nachfolge in Sindhura hinter sich gelassen haben, kehrten Arslan und sein Gefolge triumphierend nach Pars zurück. Dort stellt sich ihnen der tapfere General mit der Silbermaske, Hilmes, in den Weg. Mit der Zeit bringen sie Hilmes dazu sein Vorhaben aufzugeben. So ist es ihnen möglich sich wieder auf den Weg zur Hauptstadt zu machen, während eine noch größere Bedrohung dabei war sich Pars schnell zu nähern.
    Spieldauer: 25min
    Genre: Abenteuer
    Nebengenres: Abenteuer, Action, Drama, Fantasy
    Jahr: 2016
    Sprache: Japanisch
    Untertitel: Deutsch(HardSub)
    Größe pro Folge: ~526 MiB
    Source: HDTV
    Format: MP4
    Auflösung: 720p (16:9)
    Videocodec: x264 (AVC)
    Audiocodec: AAC
    Subgruppe / Releasegruppe: AnikiHD

    Hoster: Share-Online | Uploaded
    Passwort: siehe unten


    MediaInfo
    Code:
    
    Format                                   : MPEG-4
    Format profile                           : Base Media / Version 2
    Codec ID                                 : mp42
    File size                                : 526 MiB
    Duration                                 : 24mn 30s
    Overall bit rate mode                    : Variable
    Overall bit rate                         : 3 002 Kbps
    Movie name                               : Arslan Senki S2 - 01 - Die Invasion der Turanischen Armee [AnikiHD][AAC][720p-8Bit][HDTV][x264]
    Encoded date                             : UTC 2016-09-27 21:00:57
    Tagged date                              : UTC 2016-09-27 21:00:57
    Writing application                      : HandBrake 0.10.5 2016021100
    
    Video
    ID                                       : 1
    Format                                   : AVC
    Format/Info                              : Advanced Video Codec
    Format profile                           : [email protected]
    Format settings, CABAC                   : Yes
    Format settings, ReFrames                : 9 frames
    Codec ID                                 : avc1
    Codec ID/Info                            : Advanced Video Coding
    Duration                                 : 24mn 30s
    Bit rate                                 : 2 800 Kbps
    Width                                    : 1 280 pixels
    Height                                   : 720 pixels
    Display aspect ratio                     : 16:9
    Frame rate mode                          : Variable
    Frame rate                               : 23.976 fps
    Minimum frame rate                       : 23.974 fps
    Maximum frame rate                       : 23.981 fps
    Color space                              : YUV
    Chroma subsampling                       : 4:2:0
    Bit depth                                : 8 bits
    Scan type                                : Progressive
    Bits/(Pixel*Frame)                       : 0.127
    Stream size                              : 488 MiB (93%)
    Writing library                          : x264 core 142 r2479 dd79a61
    Encoding settings                        : cabac=1 / ref=9 / deblock=1:1:1 / analyse=0x1:0x131 / me=tesa / subme=11 / psy=1 / psy_rd=0.40:0.00 / mixed_ref=1 / me_range=24 / chroma_me=1 / trellis=2 / 8x8dct=0 / cqm=0 / deadzone=21,11 / fast_pskip=0 / chroma_qp_offset=-2 / threads=6 / lookahead_threads=1 / sliced_threads=0 / nr=0 / decimate=1 / interlaced=0 / bluray_compat=0 / constrained_intra=0 / bframes=16 / b_pyramid=2 / b_adapt=2 / b_bias=0 / direct=3 / weightb=1 / open_gop=0 / weightp=2 / keyint=240 / keyint_min=24 / scenecut=40 / intra_refresh=0 / rc_lookahead=60 / rc=abr / mbtree=1 / bitrate=2800 / ratetol=1.0 / qcomp=0.60 / qpmin=0 / qpmax=69 / qpstep=4 / vbv_maxrate=50000 / vbv_bufsize=62500 / nal_hrd=none / filler=0 / ip_ratio=1.40 / aq=1:0.60
    Encoded date                             : UTC 2016-09-27 21:00:57
    Tagged date                              : UTC 2016-09-27 21:00:57
    Color range                              : Limited
    Color primaries                          : BT.709
    Transfer characteristics                 : BT.709
    Matrix coefficients                      : BT.709
    
    Audio
    ID                                       : 2
    Format                                   : AAC
    Format/Info                              : Advanced Audio Codec
    Format profile                           : LC
    Codec ID                                 : 40
    Duration                                 : 24mn 30s
    Bit rate mode                            : Variable
    Bit rate                                 : 210 Kbps
    Channel(s)                               : 2 channels
    Channel positions                        : Front: L R
    Sampling rate                            : 48.0 KHz
    Compression mode                         : Lossy
    Stream size                              : 36.8 MiB (7%)
    Title                                    : AAC 2.0 @192 Kbps / AAC 2.0 @192 Kbps
    Language                                 : Japanese
    Encoded date                             : UTC 2016-09-27 21:00:57
    Tagged date                              : UTC 2016-09-27 21:00:57
    
    Menu
    ID                                       : 3
    Codec ID                                 : text
    Duration                                 : 24mn 29s
    Language                                 : English
    Encoded date                             : UTC 2016-09-27 21:00:57
    Tagged date                              : UTC 2016-09-27 21:00:57
    00:00:00.000                             : Prolog
    00:03:08.105                             : Opening
    00:04:38.153                             : Hauptteil A
    00:12:50.103                             : Hauptteil B
    00:22:42.111                             : Ending
    00:24:12.201                             : Vorschau
    00:24:27.091                             : Endcard
    Bit rate mode                            : VBR
    
    


    Folgen 4/8 online
    Folgen einzeln ladbar



    || Download & Passwort ||


    Geschützter Bereich - Bedanke dich beim Poster, um den Bereich sehen zu können
    Hier erfährst Du wie Du Dich bedanken kannst oder werde jetzt Premium Mitglied ab einer Spende von 5€ und erhalte sofortigen Zugriff auf den Downloadbereich!

    Geändert von galudo (13. October 2016 um 20:47 Uhr) Grund: Folgenupdate
    SUPPORT UND REUP ANFRAGEN NUR >> [Links sind nur für registrierte und aktivierte Nutzer sichtbar. Klicke hier um dich zu registrieren.] <<
    Bitte IMMER den Thread-Link mitschicken.

  2. 30 Benutzer sagen Danke:

    Ace360 (18. October 2016),Akatsuki (13. October 2016),BlackPhoenix (2. October 2016),Bombur (16. October 2016),Cande (13. October 2016),chL420 (1. October 2016),chopper23 (3. October 2016),chris1989 (13. October 2016),Conopas (28. September 2016),Dark Justice (13. October 2016),DomStrike (28. October 2016),Gott Enel (13. October 2016),Haxz0r (13. October 2016),herrwefer (13. October 2016),imnuan (25. October 2016),inst4gib (1. November 2016),livia84 (30. September 2016),Loki92 (14. October 2016),Meistermagier (16. October 2016),michael187 (13. October 2016),Monkey (28. September 2016),MViperC (16. October 2016),SatoshiKon (13. October 2016),Shugyosha (14. October 2016),SONNYxq (13. October 2016),Sora (30. September 2016),Suigetsu (13. October 2016),Vinh (16. October 2016),Winchester1889 (2. November 2016),Zap (30. September 2016)

  3. #2
    Kami-sama Avatar von galudo
    Registriert seit
    Mar 2015
    Beiträge
    1.371
    Punkte
    26.032
    Errungenschaften:
    TomodachisTagger ProfiHyperaktivSenpaiGang Leader

    AW: Arslan Senki: Fuujin Ranbu [Laufend][Jap-Dub][Ger-Sub][720p][HDTV]- AnikiHD

    Episode 02 Online
    Viel Spaß!
    SUPPORT UND REUP ANFRAGEN NUR >> [Links sind nur für registrierte und aktivierte Nutzer sichtbar. Klicke hier um dich zu registrieren.] <<
    Bitte IMMER den Thread-Link mitschicken.

  4. 3 Benutzer sagen Danke:

    chL420 (6. October 2016),SONNYxq (13. October 2016),Sora (30. September 2016)

  5. #3
    Kami-sama Avatar von galudo
    Registriert seit
    Mar 2015
    Beiträge
    1.371
    Punkte
    26.032
    Errungenschaften:
    TomodachisTagger ProfiHyperaktivSenpaiGang Leader

    AW: Arslan Senki: Fuujin Ranbu [Laufend][Jap-Dub][Ger-Sub][720p][HDTV]- AnikiHD

    Episode 03 Online
    Sei euch diese Episode genehm
    SUPPORT UND REUP ANFRAGEN NUR >> [Links sind nur für registrierte und aktivierte Nutzer sichtbar. Klicke hier um dich zu registrieren.] <<
    Bitte IMMER den Thread-Link mitschicken.

  6. 3 Benutzer sagen Danke:

    chL420 (6. October 2016),SONNYxq (13. October 2016),Sora (3. October 2016)

  7. #4
    Kami-sama Avatar von galudo
    Registriert seit
    Mar 2015
    Beiträge
    1.371
    Punkte
    26.032
    Errungenschaften:
    TomodachisTagger ProfiHyperaktivSenpaiGang Leader

    AW: Arslan Senki: Fuujin Ranbu [Laufend][Jap-Dub][Ger-Sub][720p][HDTV]- AnikiHD

    Episode 04 Online
    V-Vi-Viel Spaß ^^
    SUPPORT UND REUP ANFRAGEN NUR >> [Links sind nur für registrierte und aktivierte Nutzer sichtbar. Klicke hier um dich zu registrieren.] <<
    Bitte IMMER den Thread-Link mitschicken.

  8. 1 Benutzer sagt Danke:

    SONNYxq (13. October 2016)

Stichworte

Lesezeichen

Berechtigungen

  • Neue Themen erstellen: Nein
  • Themen beantworten: Nein
  • Anhänge hochladen: Nein
  • Beiträge bearbeiten: Nein
  •  

1 2 3 4 5 6 7 8 9 10 11 12 13 14 15 16 17 18 19 20 21 22 23 24 25 26 27 28 29 30 31 32 33 34 35 36 37 38 39 40 41 42 43 44 45 46 47 48 49 50 51 52 53 54 55 56 57 58 59 60 61 62 63 64 65 66 67 68 69 70 71 72 73 74 75 76 77 78 79 80 81 82 83 84 85 86 87 88 89 90 91 92 93 94 95 96 97 98 99 100 101 102 103 104 105 106 107 108 109 110 111 112 113 114 115 116 117 118 119 120 121 122 123 124 125 126 127 128 129 130 131 132 133 134 135 136 137 138 139 140 141 142 143 144 145 146 147 148 149 150 151 152 153 154 155 156 157 158