Ergebnis 1 bis 2 von 2

Thema: Ben-To [Jap-Dub][Ger-Sub][720p-8Bit/10Bit][BluRay] - Chinu

Dieser Thread wurde noch nicht bewertet. Bewerte ihn doch, wenn er dir gefällt!
  1. #1
    United we Stand Avatar von 00Ryuji00
    Registriert seit
    Oct 2012
    Beiträge
    3.896
    Punkte
    99.519
    Errungenschaften:
    TomodachisGang LeaderHikikomoriTagger Amateur50000 Erfahrungspunkte

    Ben-To [Jap-Dub][Ger-Sub][720p-8Bit/10Bit][BluRay] - Chinu


    Ben-To
    ベン・トー






    Kurzbeschreibung:
    Zitat Zitat von AniSearch.com
    Als der arme Schüler You Satou eines Tages den Supermarkt betritt, sieht er dort ein Angebot für ein Bento zum halben Preis. Nichtsahnend greift er danach, nur um daraufhin bewusstlos am Boden zu enden. Durch diese Aktion wird ihm bewusst, dass ein erbitterter, gnadenloser "Supermarkt-Überlebenskampf" um Bentos zum halben Preis tobt.


    Spieldauer: 24min
    Genre: Komödie
    Nebengenres: Action, Alltagsleben, Ecchi, Komödie
    Jahr: 2011
    Sprache: Japanisch
    Untertitel: Deutsch
    Größe pro Folge: ~373 MiB ~356 MiB
    Episodenanzahl: 12/12
    Format: MP4, MKV
    Auflösung: 720p (16:9)
    Videocodec: x264 (AVC)
    Audiocodec: AAC
    Releasegruppe: Chinurarete-Subs
    Hoster: Share-Online, Uploaded


    MediaInfo
    720p 8-Bit
    Code:
    
    Format                                   : MPEG-4
    Format profile                           : Base Media
    Codec ID                                 : isom
    File size                                : 373 MiB
    Duration                                 : 23mn 54s
    Overall bit rate mode                    : Variable
    Overall bit rate                         : 2 182 Kbps
    Encoded date                             : UTC 2016-09-06 09:58:49
    Tagged date                              : UTC 2016-09-06 09:58:49
    
    Video
    ID                                       : 1
    Format                                   : AVC
    Format/Info                              : Advanced Video Codec
    Format profile                           : [email protected]
    Format settings, CABAC                   : Yes
    Format settings, ReFrames                : 9 frames
    Codec ID                                 : avc1
    Codec ID/Info                            : Advanced Video Coding
    Duration                                 : 23mn 54s
    Bit rate                                 : 2 051 Kbps
    Maximum bit rate                         : 12.9 Mbps
    Width                                    : 1 280 pixels
    Height                                   : 720 pixels
    Display aspect ratio                     : 16:9
    Frame rate mode                          : Constant
    Frame rate                               : 23.976 fps
    Original frame rate                      : 29.970 fps
    Color space                              : YUV
    Chroma subsampling                       : 4:2:0
    Bit depth                                : 8 bits
    Scan type                                : Progressive
    Bits/(Pixel*Frame)                       : 0.093
    Stream size                              : 351 MiB (94%)
    Writing library                          : x264 core 142 r2431+42 c69a006 tMod [[email protected] X86_64]
    Encoding settings                        : cabac=1 / ref=9 / deblock=1:0:0 / analyse=0x1:0x131 / me=umh / subme=11 / psy=1 / fade_compensate=0.00 / psy_rd=1.00:0.00 / mixed_ref=1 / me_range=32 / chroma_me=1 / trellis=2 / 8x8dct=0 / cqm=0 / deadzone=21,11 / fast_pskip=0 / chroma_qp_offset=-2 / threads=12 / lookahead_threads=3 / sliced_threads=0 / nr=0 / decimate=0 / interlaced=0 / bluray_compat=0 / constrained_intra=0 / fgo=0 / bframes=16 / b_pyramid=2 / b_adapt=2 / b_bias=0 / direct=3 / weightb=1 / open_gop=0 / weightp=2 / keyint=250 / keyint_min=25 / scenecut=40 / intra_refresh=0 / rc_lookahead=250 / rc=crf / mbtree=1 / crf=16.0000 / qcomp=0.75 / qpmin=0:0:0 / qpmax=69:69:69 / qpstep=4 / ip_ratio=1.40 / aq=2:0.86 / aq-sensitivity=10.00 / aq-factor=1.00:1.00:1.00 / aq2=0 / aq3=0
    Encoded date                             : UTC 2016-09-06 09:58:48
    Tagged date                              : UTC 2016-09-06 09:58:51
    Color range                              : Limited
    Color primaries                          : BT.709
    Transfer characteristics                 : BT.709
    Matrix coefficients                      : BT.709
    
    Audio
    ID                                       : 2
    Format                                   : AAC
    Format/Info                              : Advanced Audio Codec
    Format profile                           : LC
    Codec ID                                 : 40
    Duration                                 : 23mn 54s
    Bit rate mode                            : Variable
    Bit rate                                 : 128 Kbps
    Maximum bit rate                         : 193 Kbps
    Channel(s)                               : 2 channels
    Channel positions                        : Front: L R
    Sampling rate                            : 48.0 KHz
    Compression mode                         : Lossy
    Stream size                              : 22.0 MiB (6%)
    Encoded date                             : UTC 2016-09-06 09:58:50
    Tagged date                              : UTC 2016-09-06 09:58:51
    
    Menu
    00:00:00.000                             : Einleitung
    00:00:34.034                             : Opening
    00:02:04.124                             : Hauptteil
    00:21:26.300                             : Ending
    00:22:56.800                             : Vorschau
    
    


    720p 10-Bit
    Code:
    
    Format                                   : Matroska
    Format version                           : Version 4 / Version 2
    File size                                : 356 MiB
    Duration                                 : 23mn 42s
    Overall bit rate                         : 2 098 Kbps
    Movie name                               : [Chinurarete Subs] Ben-To - Folge 01 - Reisschüssel mit klebrigen, gegärten Sojabohnen, Okra und pikantem Käse garniert, 440 kcal
    Encoded date                             : UTC 2016-09-07 07:56:20
    Writing application                      : mkvmerge v9.3.1 ('Mask Machine') 64bit
    Writing library                          : libebml v1.3.4 + libmatroska v1.4.5
    Attachements                             : Barmeno Medium.ttf / Blairesque Gothic JF.ttf / blue highway bd.ttf / blue highway cd.ttf / blue highway rg.ttf / Bluehigc.ttf / chinrg.ttf / chint.ttf / Gabrielle.ttf / LCD_Solid.ttf / PoetsenOne-Regular.ttf / RomanAntique.ttf / AveriaSerif-Bold.ttf / AveriaSerif-BoldItalic.ttf / AveriaSerif-Italic.ttf / AveriaSerif-Light.ttf / AveriaSerif-LightItalic.ttf / AveriaSerif-Regular.ttf
    DURATION                                 : 00:23:33.740000000
    NUMBER_OF_FRAMES                         : 2936
    NUMBER_OF_BYTES                          : 396384
    _STATISTICS_WRITING_APP                  : mkvmerge v9.3.1 ('Mask Machine') 64bit
    _STATISTICS_WRITING_DATE_UTC             : 2016-09-07 07:56:20
    _STATISTICS_TAGS                         : BPS DURATION NUMBER_OF_FRAMES NUMBER_OF_BYTES
    
    Video
    ID                                       : 1
    Format                                   : AVC
    Format/Info                              : Advanced Video Codec
    Format profile                           : High [email protected]
    Format settings, CABAC                   : Yes
    Format settings, ReFrames                : 16 frames
    Codec ID                                 : V_MPEG4/ISO/AVC
    Duration                                 : 23mn 42s
    Width                                    : 1 280 pixels
    Height                                   : 720 pixels
    Display aspect ratio                     : 16:9
    Frame rate mode                          : Constant
    Frame rate                               : 23.976 fps
    Color space                              : YUV
    Chroma subsampling                       : 4:2:0
    Bit depth                                : 10 bits
    Scan type                                : Progressive
    Title                                    : Video
    Writing library                          : x264 core 142 r2431+42 c69a006 tMod [[email protected] X86_64]
    Encoding settings                        : cabac=1 / ref=16 / deblock=1:0:0 / analyse=0x3:0x133 / me=umh / subme=11 / psy=1 / fade_compensate=0.00 / psy_rd=0.80:0.10 / mixed_ref=1 / me_range=32 / chroma_me=1 / trellis=2 / 8x8dct=1 / cqm=0 / deadzone=21,11 / fast_pskip=0 / chroma_qp_offset=-3 / threads=18 / lookahead_threads=4 / sliced_threads=0 / nr=0 / decimate=0 / interlaced=0 / bluray_compat=0 / constrained_intra=0 / fgo=0 / bframes=16 / b_pyramid=2 / b_adapt=2 / b_bias=0 / direct=3 / weightb=1 / open_gop=1 / weightp=2 / keyint=250 / keyint_min=23 / scenecut=40 / intra_refresh=0 / rc_lookahead=250 / rc=crf / mbtree=1 / crf=16.0000 / qcomp=0.75 / qpmin=0:0:0 / qpmax=81:81:81 / qpstep=4 / ip_ratio=1.40 / aq=4:0.80 / aq-sensitivity=10.00 / aq-factor=1.00:1.00:1.00 / aq2=0 / aq3=0
    Language                                 : German
    Default                                  : Yes
    Forced                                   : Yes
    Color range                              : Limited
    Color primaries                          : BT.709
    Transfer characteristics                 : BT.709
    Matrix coefficients                      : BT.709
    DURATION                                 : 00:23:41.087000000
    NUMBER_OF_FRAMES                         : 34072
    NUMBER_OF_BYTES                          : 347532465
    _STATISTICS_WRITING_APP                  : mkvmerge v9.3.1 ('Mask Machine') 64bit
    _STATISTICS_WRITING_DATE_UTC             : 2016-09-07 07:56:20
    _STATISTICS_TAGS                         : BPS DURATION NUMBER_OF_FRAMES NUMBER_OF_BYTES
    
    Audio
    ID                                       : 2
    Format                                   : AAC
    Format/Info                              : Advanced Audio Codec
    Format profile                           : LC
    Codec ID                                 : A_AAC
    Duration                                 : 23mn 42s
    Channel(s)                               : 2 channels
    Channel positions                        : Front: L R
    Sampling rate                            : 48.0 KHz
    Compression mode                         : Lossy
    Title                                    : Audio
    Language                                 : Japanese
    Default                                  : Yes
    Forced                                   : Yes
    
    Text #1
    ID                                       : 3
    Format                                   : ASS
    Codec ID                                 : S_TEXT/ASS
    Codec ID/Info                            : Advanced Sub Station Alpha
    Compression mode                         : Lossless
    Title                                    : Farbsub
    Language                                 : German
    Default                                  : Yes
    Forced                                   : Yes
    
    Text #2
    ID                                       : 4
    Format                                   : ASS
    Codec ID                                 : S_TEXT/ASS
    Codec ID/Info                            : Advanced Sub Station Alpha
    Compression mode                         : Lossless
    Title                                    : Kein Farbsub
    Language                                 : German
    Default                                  : No
    Forced                                   : No
    
    Menu
    00:00:00.000                             : de:Einleitung
    00:00:34.034                             : de:Opening
    00:02:04.124                             : de:Hauptteil
    00:21:13.022                             : de:Ending
    00:22:43.070                             : de:Vorschau
    
    







    Geschützter Bereich - Bedanke dich beim Poster, um den Bereich sehen zu können
    Hier erfährst Du wie Du Dich bedanken kannst oder werde jetzt Premium Mitglied ab einer Spende von 5€ und erhalte sofortigen Zugriff auf den Downloadbereich!

    [Links sind nur für registrierte und aktivierte Nutzer sichtbar. Klicke hier um dich zu registrieren.]
    !!!Alle Anliegen bezüglich Uploads werden nur mit direktem Threadlink zum Angebot bearbeitet!!!

    Re-Uploadanfragen nur per PN - Ihr könnt mir auch Listen schicken

    Re-Uploads erfolgen meist innerhalb 24h, kann aber auch bis zu 7 Tage dauern

    [Links sind nur für registrierte und aktivierte Nutzer sichtbar. Klicke hier um dich zu registrieren.] | [Links sind nur für registrierte und aktivierte Nutzer sichtbar. Klicke hier um dich zu registrieren.] | >[Links sind nur für registrierte und aktivierte Nutzer sichtbar. Klicke hier um dich zu registrieren.]<
    [Links sind nur für registrierte und aktivierte Nutzer sichtbar. Klicke hier um dich zu registrieren.]

  2. 4 Benutzer sagen Danke:

    Black Lotus (16. October 2016),Mr.Shit (15. October 2016),Nanatzusaya (24. September 2016),Ronae (23. September 2016)

  3. #2
    Uploader Avatar von Filbo11
    Registriert seit
    Jan 2015
    Beiträge
    926
    Punkte
    17.174
    Errungenschaften:
    TomodachisErste Gruppe1 Jahr registriertCreated Album picturesTagger First Class

    AW: Ben-To [Jap-Dub][Ger-Sub][720p-8Bit/10Bit][BluRay] - Chinu

    Ben-To
    ベン・トー




    Beschreibung

    Als der arme Schüler You Satou eines Tages den Supermarkt betritt, sieht er dort ein Angebot für ein Bento zum halben Preis. Nichtsahnend greift er danach, nur um daraufhin bewusstlos am Boden zu enden. Durch diese Aktion wird ihm bewusst, dass ein erbitterter, gnadenloser "Supermarkt-Überlebenskampf" um Bentos zum halben Preis tobt.


    Format: mp4 [8Bit] / mkv [10Bit]
    Dauer: ca. 24 min
    Größe: ca. ~350 MB [8Bit] / ~320 MB [10Bit]
    Episodenanzahl: 12/12
    Sprache: Japanisch
    Untertitel: Deutsch
    Group: [Chinurarete Subs]
    Hoster: Uploaded.net & Share-Online.biz
    kein PW


    Screenshots & MediaInfo

    8Bit
    [Links sind nur für registrierte und aktivierte Nutzer sichtbar. Klicke hier um dich zu registrieren.]

    Code:
    General
    Complete name               : [Chinurarete_Subs]Ben-To_01_8Bit_[BD_720p_AAC]_[D9D7877C].mp4
    Format                      : MPEG-4
    Format profile              : Base Media
    Codec ID                    : isom (isom)
    File size                   : 373 MiB
    Duration                    : 23 min
    Overall bit rate mode       : Variable
    Overall bit rate            : 2 182 kb/s
    Encoded date                : UTC 2016-09-06 09:58:49
    Tagged date                 : UTC 2016-09-06 09:58:49
    
    Video
    ID                          : 1
    Format                      : AVC
    Format/Info                 : Advanced Video Codec
    Format profile              : [email protected]
    Format settings, CABAC      : Yes
    Format settings, ReFrames   : 9 frames
    Codec ID                    : avc1
    Codec ID/Info               : Advanced Video Coding
    Duration                    : 23 min
    Bit rate                    : 2 051 kb/s
    Maximum bit rate            : 12.9 Mb/s
    Width                       : 1 280 pixels
    Height                      : 720 pixels
    Display aspect ratio        : 16:9
    Frame rate mode             : Constant
    Frame rate                  : 23.976 (24000/1001) FPS
    Original frame rate         : 29.970 (30000/1001) FPS
    Color space                 : YUV
    Chroma subsampling          : 4:2:0
    Bit depth                   : 8 bits
    Scan type                   : Progressive
    Bits/(Pixel*Frame)          : 0.093
    Stream size                 : 351 MiB (94%)
    Writing library             : x264 core 142 r2431+42 c69a006 tMod [[email protected] X86_64]
    Encoding settings           : cabac=1 / ref=9 / deblock=1:0:0 / analyse=0x1:0x131 / me=umh / subme=11 / psy=1 / fade_compensate=0.00 / psy_rd=1.00:0.00 / mixed_ref=1 / me_range=32 / chroma_me=1 / trellis=2 / 8x8dct=0 / cqm=0 / deadzone=21,11 / fast_pskip=0 / chroma_qp_offset=-2 / threads=12 / lookahead_threads=3 / sliced_threads=0 / nr=0 / decimate=0 / interlaced=0 / bluray_compat=0 / constrained_intra=0 / fgo=0 / bframes=16 / b_pyramid=2 / b_adapt=2 / b_bias=0 / direct=3 / weightb=1 / open_gop=0 / weightp=2 / keyint=250 / keyint_min=25 / scenecut=40 / intra_refresh=0 / rc_lookahead=250 / rc=crf / mbtree=1 / crf=16.0000 / qcomp=0.75 / qpmin=0:0:0 / qpmax=69:69:69 / qpstep=4 / ip_ratio=1.40 / aq=2:0.86 / aq-sensitivity=10.00 / aq-factor=1.00:1.00:1.00 / aq2=0 / aq3=0
    Encoded date                : UTC 2016-09-06 09:58:48
    Tagged date                 : UTC 2016-09-06 09:58:51
    Color range                 : Limited
    Color primaries             : BT.709
    Transfer characteristics    : BT.709
    Matrix coefficients         : BT.709
    
    Audio
    ID                          : 2
    Format                      : AAC
    Format/Info                 : Advanced Audio Codec
    Format profile              : LC
    Codec ID                    : 40
    Duration                    : 23 min
    Bit rate mode               : Variable
    Bit rate                    : 128 kb/s
    Maximum bit rate            : 193 kb/s
    Channel(s)                  : 2 channels
    Channel positions           : Front: L R
    Sampling rate               : 48.0 kHz
    Frame rate                  : 46.875 FPS (1024 spf)
    Compression mode            : Lossy
    Stream size                 : 22.0 MiB (6%)
    Encoded date                : UTC 2016-09-06 09:58:50
    Tagged date                 : UTC 2016-09-06 09:58:51
    
    Menu
    00:00:00.000                : Einleitung
    00:00:34.034                : Opening
    00:02:04.124                : Hauptteil
    00:21:26.300                : Ending
    00:22:56.800                : Vorschau


    10Bit
    [Links sind nur für registrierte und aktivierte Nutzer sichtbar. Klicke hier um dich zu registrieren.]

    Code:
    General
    
    Complete name               : [Chinurarete_Subs]Ben-To_01_10Bit_[BD_720p_AAC]_[0FC34C9F].mkv
    Format                      : Matroska
    Format version              : Version 4 / Version 2
    File size                   : 356 MiB
    Duration                    : 23 min
    Overall bit rate            : 2 098 kb/s
    Movie name                  : [Chinurarete Subs] Ben-To - Folge 01 - Reisschüssel mit klebrigen, gegärten Sojabohnen, Okra und pikantem Käse garniert, 440 kcal
    Encoded date                : UTC 2016-09-07 07:56:20
    Writing application         : mkvmerge v9.3.1 ('Mask Machine') 64bit
    Writing library             : libebml v1.3.4 + libmatroska v1.4.5
    Attachments                 : Barmeno Medium.ttf / Blairesque Gothic JF.ttf / blue highway bd.ttf / blue highway cd.ttf / blue highway rg.ttf / Bluehigc.ttf / chinrg.ttf / chint.ttf / Gabrielle.ttf / LCD_Solid.ttf / PoetsenOne-Regular.ttf / RomanAntique.ttf / AveriaSerif-Bold.ttf / AveriaSerif-BoldItalic.ttf / AveriaSerif-Italic.ttf / AveriaSerif-Light.ttf / AveriaSerif-LightItalic.ttf / AveriaSerif-Regular.ttf
    
    Video
    ID                          : 1
    Format                      : AVC
    Format/Info                 : Advanced Video Codec
    Format profile              : High [email protected]
    Format settings, CABAC      : Yes
    Format settings, ReFrames   : 16 frames
    Codec ID                    : V_MPEG4/ISO/AVC
    Duration                    : 23 min
    Bit rate                    : 1 956 kb/s
    Width                       : 1 280 pixels
    Height                      : 720 pixels
    Display aspect ratio        : 16:9
    Frame rate mode             : Constant
    Frame rate                  : 23.976 (24000/1001) FPS
    Color space                 : YUV
    Chroma subsampling          : 4:2:0
    Bit depth                   : 10 bits
    Scan type                   : Progressive
    Bits/(Pixel*Frame)          : 0.089
    Stream size                 : 331 MiB (93%)
    Title                       : Video
    Writing library             : x264 core 142 r2431+42 c69a006 tMod [[email protected] X86_64]
    Encoding settings           : cabac=1 / ref=16 / deblock=1:0:0 / analyse=0x3:0x133 / me=umh / subme=11 / psy=1 / fade_compensate=0.00 / psy_rd=0.80:0.10 / mixed_ref=1 / me_range=32 / chroma_me=1 / trellis=2 / 8x8dct=1 / cqm=0 / deadzone=21,11 / fast_pskip=0 / chroma_qp_offset=-3 / threads=18 / lookahead_threads=4 / sliced_threads=0 / nr=0 / decimate=0 / interlaced=0 / bluray_compat=0 / constrained_intra=0 / fgo=0 / bframes=16 / b_pyramid=2 / b_adapt=2 / b_bias=0 / direct=3 / weightb=1 / open_gop=1 / weightp=2 / keyint=250 / keyint_min=23 / scenecut=40 / intra_refresh=0 / rc_lookahead=250 / rc=crf / mbtree=1 / crf=16.0000 / qcomp=0.75 / qpmin=0:0:0 / qpmax=81:81:81 / qpstep=4 / ip_ratio=1.40 / aq=4:0.80 / aq-sensitivity=10.00 / aq-factor=1.00:1.00:1.00 / aq2=0 / aq3=0
    Language                    : German
    Default                     : Yes
    Forced                      : Yes
    Color range                 : Limited
    Color primaries             : BT.709
    Transfer characteristics    : BT.709
    Matrix coefficients         : BT.709
    
    Audio
    ID                          : 2
    Format                      : AAC
    Format/Info                 : Advanced Audio Codec
    Format profile              : LC
    Codec ID                    : A_AAC
    Duration                    : 23 min
    Bit rate                    : 128 kb/s
    Channel(s)                  : 2 channels
    Channel positions           : Front: L R
    Sampling rate               : 48.0 kHz
    Frame rate                  : 46.875 FPS (1024 spf)
    Compression mode            : Lossy
    Stream size                 : 21.7 MiB (6%)
    Title                       : Audio
    Language                    : Japanese
    Default                     : Yes
    Forced                      : Yes
    
    Text #1
    ID                          : 3
    Format                      : ASS
    Codec ID                    : S_TEXT/ASS
    Codec ID/Info               : Advanced Sub Station Alpha
    Duration                    : 23 min
    Bit rate                    : 2 241 b/s
    Count of elements           : 2936
    Compression mode            : Lossless
    Stream size                 : 387 KiB (0%)
    Title                       : Farbsub
    Language                    : German
    Default                     : Yes
    Forced                      : Yes
    
    Text #2
    ID                          : 4
    Format                      : ASS
    Codec ID                    : S_TEXT/ASS
    Codec ID/Info               : Advanced Sub Station Alpha
    Duration                    : 23 min
    Bit rate                    : 2 243 b/s
    Count of elements           : 2936
    Compression mode            : Lossless
    Stream size                 : 387 KiB (0%)
    Title                       : Kein Farbsub
    Language                    : German
    Default                     : No
    Forced                      : No
    
    Menu
    00:00:00.000                : de:Einleitung
    00:00:34.034                : de:Opening
    00:02:04.124                : de:Hauptteil
    00:21:13.022                : de:Ending
    00:22:43.070                : de:Vorschau


    Alle Mirrors untereinander kompatibel
    Folgen einzeln ladbar



    Download
    Geschützter Bereich - Bedanke dich beim Poster, um den Bereich sehen zu können
    Hier erfährst Du wie Du Dich bedanken kannst oder werde jetzt Premium Mitglied ab einer Spende von 5€ und erhalte sofortigen Zugriff auf den Downloadbereich!



    [Links sind nur für registrierte und aktivierte Nutzer sichtbar. Klicke hier um dich zu registrieren.]

    Ich wäre allen sehr dankbar, die mir gravierende Fehler in meinen Releases per PN melden

Lesezeichen

Berechtigungen

  • Neue Themen erstellen: Nein
  • Themen beantworten: Nein
  • Anhänge hochladen: Nein
  • Beiträge bearbeiten: Nein
  •  

1 2 3 4 5 6 7 8 9 10 11 12 13 14 15 16 17 18 19 20 21 22 23 24 25 26 27 28 29 30 31 32 33 34 35 36 37 38 39 40 41 42 43 44 45 46 47 48 49 50 51 52 53 54 55 56 57 58 59 60 61 62 63 64 65 66 67 68 69 70 71 72 73 74 75 76 77 78 79 80 81 82 83 84 85 86 87 88 89 90 91 92 93 94 95 96 97 98 99 100 101 102 103 104 105 106 107 108 109 110 111 112 113 114 115 116 117 118 119 120 121 122 123 124 125 126 127 128 129 130 131 132 133 134 135 136 137 138 139 140 141 142 143 144 145 146 147 148 149 150 151 152 153 154 155 156 157 158