Ergebnis 1 bis 1 von 1

Thema: Ben-To [Jap-Dub][Ger-Sub][720p][HDTV] - dangosubs

Dieser Thread wurde noch nicht bewertet. Bewerte ihn doch, wenn er dir gefällt!
  1. #1
    Erfahrener Otaku Avatar von Pitou
    Registriert seit
    Jan 2016
    Ort
    Hamburg
    Beiträge
    155
    Punkte
    1.629
    Errungenschaften:
    Tomodachis1000 ErfahrungspunkteSenpai

    Ben-To [Jap-Dub][Ger-Sub][720p][HDTV] - dangosubs


    Ben-To
    ベン・トー






    Kurzbeschreibung:
    Zitat Zitat von AniSearch.com
    Als der arme Schüler You Satou eines Tages den Supermarkt betritt, sieht er dort ein Angebot für ein Bento zum halben Preis. Nichtsahnend greift er danach, nur um daraufhin bewusstlos am Boden zu enden. Durch diese Aktion wird ihm bewusst, dass ein erbitterter, gnadenloser "Supermarkt-Überlebenskampf" um Bentos zum halben Preis tobt.


    Spieldauer: 24min
    Genre: Komödie
    Nebengenres: Action, Alltagsleben, Ecchi, Komödie
    Jahr: 2011
    Sprache: Japanisch
    Untertitel: Deutsch
    Größe pro Folge: ~277 MiB
    Episodenanzahl: 12/12
    Format: MP4
    Auflösung: 720p (16:9)
    Videocodec: x264 (AVC)
    Audiocodec: AAC
    Releasegruppe: dangosubs
    Hoster: Uploaded


    MediaInfo
    Code:
    
    Format                                   : MPEG-4
    Format profile                           : Base Media / Version 2
    Codec ID                                 : mp42
    File size                                : 277 MiB
    Duration                                 : 23mn 22s
    Overall bit rate mode                    : Variable
    Overall bit rate                         : 1 655 Kbps
    Encoded date                             : UTC 2014-03-29 16:17:02
    Tagged date                              : UTC 2014-03-29 16:20:43
    Writing application                      : HandBrake 0.9.9 2013052900
    
    Video
    ID                                       : 1
    Format                                   : AVC
    Format/Info                              : Advanced Video Codec
    Format profile                           : [email protected]
    Format settings, CABAC                   : Yes
    Format settings, ReFrames                : 4 frames
    Codec ID                                 : avc1
    Codec ID/Info                            : Advanced Video Coding
    Duration                                 : 23mn 22s
    Bit rate                                 : 1 500 Kbps
    Width                                    : 1 280 pixels
    Height                                   : 720 pixels
    Display aspect ratio                     : 16:9
    Frame rate mode                          : Variable
    Frame rate                               : 23.976 fps
    Minimum frame rate                       : 23.810 fps
    Maximum frame rate                       : 24.390 fps
    Color space                              : YUV
    Chroma subsampling                       : 4:2:0
    Bit depth                                : 8 bits
    Scan type                                : Progressive
    Bits/(Pixel*Frame)                       : 0.068
    Stream size                              : 249 MiB (90%)
    Writing library                          : x264 core 130 r2273 b3065e6
    Encoding settings                        : cabac=1 / ref=1 / deblock=1:0:0 / analyse=0x1:0x111 / me=hex / subme=2 / psy=1 / psy_rd=1.00:0.00 / mixed_ref=0 / me_range=16 / chroma_me=1 / trellis=0 / 8x8dct=0 / cqm=0 / deadzone=21,11 / fast_pskip=1 / chroma_qp_offset=0 / threads=12 / lookahead_threads=4 / sliced_threads=0 / nr=0 / decimate=1 / interlaced=0 / bluray_compat=0 / constrained_intra=0 / bframes=3 / b_pyramid=2 / b_adapt=1 / b_bias=0 / direct=1 / weightb=1 / open_gop=0 / weightp=1 / keyint=240 / keyint_min=24 / scenecut=40 / intra_refresh=0 / rc_lookahead=10 / rc=abr / mbtree=1 / bitrate=1500 / ratetol=1.0 / qcomp=0.60 / qpmin=0 / qpmax=69 / qpstep=4 / vbv_maxrate=20000 / vbv_bufsize=25000 / nal_hrd=none / ip_ratio=1.40 / aq=1:1.00
    Encoded date                             : UTC 2014-03-29 16:17:02
    Tagged date                              : UTC 2014-03-29 16:20:43
    Color range                              : Limited
    Color primaries                          : BT.709
    Transfer characteristics                 : BT.709
    Matrix coefficients                      : BT.709
    
    Audio
    ID                                       : 2
    Format                                   : AAC
    Format/Info                              : Advanced Audio Codec
    Format profile                           : LC
    Codec ID                                 : 40
    Duration                                 : 23mn 22s
    Bit rate mode                            : Variable
    Bit rate                                 : 160 Kbps
    Maximum bit rate                         : 310 Kbps
    Channel(s)                               : 2 channels
    Channel positions                        : Front: L R
    Sampling rate                            : 48.0 KHz
    Compression mode                         : Lossy
    Stream size                              : 26.7 MiB (10%)
    Title                                    : Stereo
    Encoded date                             : UTC 2014-03-29 16:17:02
    Tagged date                              : UTC 2014-03-29 16:20:42
    
    





    Geschützter Bereich - Bedanke dich beim Poster, um den Bereich sehen zu können
    Hier erfährst Du wie Du Dich bedanken kannst oder werde jetzt Premium Mitglied ab einer Spende von 5€ und erhalte sofortigen Zugriff auf den Downloadbereich!

    [Links sind nur für registrierte und aktivierte Nutzer sichtbar. Klicke hier um dich zu registrieren.]

  2. 5 Benutzer sagen Danke:

    Angel86 (18. May 2016),bloodyfloh (4. July 2016),Gaara (11. June 2016),GiftGasBaer (13. May 2016),KelioN (16. May 2016)

Lesezeichen

Berechtigungen

  • Neue Themen erstellen: Nein
  • Themen beantworten: Nein
  • Anhänge hochladen: Nein
  • Beiträge bearbeiten: Nein
  •  

1 2 3 4 5 6 7 8 9 10 11 12 13 14 15 16 17 18 19 20 21 22 23 24 25 26 27 28 29 30 31 32 33 34 35 36 37 38 39 40 41 42 43 44 45 46 47 48 49 50 51 52 53 54 55 56 57 58 59 60 61 62 63 64 65 66 67 68 69 70 71 72 73 74 75 76 77 78 79 80 81 82 83 84 85 86 87 88 89 90 91 92 93 94 95 96 97 98 99 100 101 102 103 104 105 106 107 108 109 110 111 112 113 114 115 116 117 118 119 120 121 122 123 124 125 126 127 128 129 130 131 132 133 134 135 136 137 138 139 140 141 142 143 144 145 146 147 148 149 150 151 152 153 154 155 156 157 158