Ergebnis 1 bis 9 von 9

Thema: Big Order (2016) [Jap-Dub][Ger-Sub][720p-8Bit/10Bit][HDTV] - SHFS

Dieser Thread wurde noch nicht bewertet. Bewerte ihn doch, wenn er dir gefällt!
  1. #1
    Uploader Avatar von Filbo11
    Registriert seit
    Jan 2015
    Beiträge
    927
    Punkte
    17.224
    Errungenschaften:
    TomodachisErste Gruppe1 Jahr registriertCreated Album picturesTagger First Class

    Big Order (2016) [Jap-Dub][Ger-Sub][720p-8Bit/10Bit][HDTV] - SHFS

    Big Order (2016)
    ビッグオーダー (2016)
    Big Order




    Beschreibung

    Vor 10 Jahren geschah etwas Unfassbares: Die Welt wurde zerstört; und daran war der Junge Eiji Hoshimiya Schuld, der sich als Kind die Zerstörung der Welt gewünscht hat und dessen Wunsch in Erfüllung gegangen ist. Nun ist er bloß ein schüchterner Oberschüler, der das Geheimnis mit sich trägt, dass er ein Big Order ist.
    Durch Feen, die bestimmten Menschen spezielle Fähigkeiten namens Orders geben, sind die Benutzer in der Lage, eine große Kraft anzuwenden, die auf ihren Wünschen beruht. Doch auch noch nach 10 Jahren kämpft Eiji damit, mit seiner enormen Kraft klarzukommen.


    Format: mkv [8Bit/10Bit]
    Dauer: ca. 24 min
    Größe: ca. 474 MB [8Bit] / 454 MB [10Bit]
    Sprache: Japanisch
    Untertitel: Deutsch
    Group: [Shiroi-Fansubs]
    Hoster: Uploaded.net & Share-Online.biz
    kein PW


    Screenshots & MediaInfo

    8Bit
    [Links sind nur für registrierte und aktivierte Nutzer sichtbar. Klicke hier um dich zu registrieren.]

    Code:
    General
    
    Complete name               : [SHFS] Big Order - 01 (8bit, 720p, x264, AAC)[0CCFF81A].mkv
    Format                      : Matroska
    Format version              : Version 4 / Version 2
    File size                   : 464 MiB
    Duration                    : 24mn 9s
    Overall bit rate            : 2 684 Kbps
    Movie name                  : [SHFS] Big Order - 01 (8bit, 720p, x264, AAC) - German Sub
    Encoded date                : UTC 2016-04-20 08:15:24
    Writing application         : mkvmerge v9.0.1 ('Obstacles') 64bit
    Writing library             : libebml v1.3.3 + libmatroska v1.4.4
    
    Video
    ID                          : 1
    Format                      : AVC
    Format/Info                 : Advanced Video Codec
    Format profile              : [email protected]
    Format settings, CABAC      : Yes
    Format settings, ReFrames   : 8 frames
    Codec ID                    : V_MPEG4/ISO/AVC
    Duration                    : 24mn 9s
    Bit rate                    : 2 429 Kbps
    Width                       : 1 280 pixels
    Height                      : 720 pixels
    Display aspect ratio        : 16:9
    Frame rate mode             : Constant
    Frame rate                  : 23.976 (24000/1001) fps
    Color space                 : YUV
    Chroma subsampling          : 4:2:0
    Bit depth                   : 8 bits
    Scan type                   : Progressive
    Bits/(Pixel*Frame)          : 0.110
    Stream size                 : 420 MiB (91%)
    Title                       : Original
    Writing library             : x264 core 148 r2692kMod 64f4e24
    Encoding settings           : cabac=1 / ref=8 / deblock=1:-1:-2 / analyse=0x3:0x133 / me=umh / subme=10 / psy=1 / fade_compensate=0.00 / psy_rd=0.80:0.10 / mixed_ref=1 / me_range=32 / chroma_me=1 / trellis=2 / 8x8dct=1 / cqm=0 / deadzone=21,11 / fast_pskip=0 / chroma_qp_offset=-3 / threads=12 / lookahead_threads=3 / sliced_threads=0 / nr=0 / decimate=1 / interlaced=0 / bluray_compat=0 / constrained_intra=0 / fgo=0 / bframes=16 / b_pyramid=2 / b_adapt=2 / b_bias=0 / direct=3 / weightb=1 / open_gop=0 / weightp=2 / keyint=240 / keyint_min=23 / scenecut=40 / intra_refresh=0 / rc_lookahead=75 / rc=crf / mbtree=1 / crf=15.5000 / qcomp=0.60 / qpmin=0 / qpmax=69 / qpstep=4 / ip_ratio=1.40 / aq=2:0.80
    Language                    : Japanese
    Default                     : Yes
    Forced                      : No
    
    Audio
    ID                          : 2
    Format                      : AAC
    Format/Info                 : Advanced Audio Codec
    Format profile              : LC
    Codec ID                    : A_AAC
    Duration                    : 24mn 9s
    Bit rate                    : 252 Kbps
    Channel(s)                  : 2 channels
    Channel positions           : Front: L R
    Sampling rate               : 48.0 KHz
    Frame rate                  : 46.875 fps (1024 spf)
    Compression mode            : Lossy
    Stream size                 : 43.6 MiB (9%)
    Title                       : Japanisch
    Language                    : Japanese
    Default                     : Yes
    Forced                      : No
    
    Menu
    00:00:00.000                : :Vorspann
    00:00:15.057                : :Teil 1
    00:13:52.999                : :Eyecatch
    00:13:58.004                : :Teil 2
    00:23:34.038                : :Ending
    00:23:54.975                : :Nächstes Mal ...


    10Bit
    [Links sind nur für registrierte und aktivierte Nutzer sichtbar. Klicke hier um dich zu registrieren.]

    Code:
    General
    
    Complete name               : [SHFS] Big Order - 01 (10bit, 720p, x264, AAC)[380B7384].mkv
    Format                      : Matroska
    Format version              : Version 4 / Version 2
    File size                   : 444 MiB
    Duration                    : 24mn 9s
    Overall bit rate            : 2 570 Kbps
    Movie name                  : [SHFS] Big Order - 01 (10bit, 720p, x264, AAC) - German Sub
    Encoded date                : UTC 2016-04-20 11:24:52
    Writing application         : mkvmerge v9.0.1 ('Obstacles') 64bit
    Writing library             : libebml v1.3.3 + libmatroska v1.4.4
    Attachments                 : BakerSignetStd.otf
    
    Video
    ID                          : 1
    Format                      : AVC
    Format/Info                 : Advanced Video Codec
    Format profile              : High [email protected]
    Format settings, CABAC      : Yes
    Format settings, ReFrames   : 16 frames
    Codec ID                    : V_MPEG4/ISO/AVC
    Duration                    : 24mn 9s
    Bit rate                    : 2 315 Kbps
    Width                       : 1 280 pixels
    Height                      : 720 pixels
    Display aspect ratio        : 16:9
    Frame rate mode             : Constant
    Frame rate                  : 23.976 (24000/1001) fps
    Color space                 : YUV
    Chroma subsampling          : 4:2:0
    Bit depth                   : 10 bits
    Scan type                   : Progressive
    Bits/(Pixel*Frame)          : 0.105
    Stream size                 : 400 MiB (90%)
    Title                       : Original
    Writing library             : x264 core 148 r2692kMod 64f4e24
    Encoding settings           : cabac=1 / ref=16 / deblock=1:-1:-2 / analyse=0x3:0x133 / me=umh / subme=10 / psy=1 / fade_compensate=0.00 / psy_rd=0.80:0.10 / mixed_ref=1 / me_range=32 / chroma_me=1 / trellis=2 / 8x8dct=1 / cqm=0 / deadzone=21,11 / fast_pskip=0 / chroma_qp_offset=-3 / threads=12 / lookahead_threads=3 / sliced_threads=0 / nr=0 / decimate=1 / interlaced=0 / bluray_compat=0 / constrained_intra=0 / fgo=0 / bframes=16 / b_pyramid=2 / b_adapt=2 / b_bias=0 / direct=3 / weightb=1 / open_gop=0 / weightp=2 / keyint=240 / keyint_min=23 / scenecut=40 / intra_refresh=0 / rc_lookahead=75 / rc=crf / mbtree=1 / crf=15.0000 / qcomp=0.60 / qpmin=0 / qpmax=81 / qpstep=4 / ip_ratio=1.40 / aq=2:0.80
    Language                    : Japanese
    Default                     : Yes
    Forced                      : No
    
    Audio
    ID                          : 2
    Format                      : AAC
    Format/Info                 : Advanced Audio Codec
    Format profile              : LC
    Codec ID                    : A_AAC
    Duration                    : 24mn 9s
    Bit rate                    : 252 Kbps
    Channel(s)                  : 2 channels
    Channel positions           : Front: L R
    Sampling rate               : 48.0 KHz
    Frame rate                  : 46.875 fps (1024 spf)
    Compression mode            : Lossy
    Stream size                 : 43.6 MiB (10%)
    Title                       : Japanisch
    Language                    : Japanese
    Default                     : Yes
    Forced                      : No
    
    Text
    ID                          : 3
    Format                      : ASS
    Codec ID                    : S_TEXT/ASS
    Codec ID/Info               : Advanced Sub Station Alpha
    Duration                    : 24mn 7s
    Bit rate                    : 252 bps
    Count of elements           : 512
    Compression mode            : Lossless
    Stream size                 : 44.6 KiB (0%)
    Title                       : Deutsch
    Language                    : German
    Default                     : Yes
    Forced                      : No
    
    Menu
    00:00:00.000                : :Vorspann
    00:00:15.057                : :Teil 1
    00:13:52.999                : :Eyecatch
    00:13:58.004                : :Teil 2
    00:23:34.038                : :Ending
    00:23:54.975                : :Nächstes Mal ...


    Alle Mirrors untereinander kompatibel
    Folgen einzeln ladbar
    Folge 10/10 online


    Download
    Geschützter Bereich - Bedanke dich beim Poster, um den Bereich sehen zu können
    Hier erfährst Du wie Du Dich bedanken kannst oder werde jetzt Premium Mitglied ab einer Spende von 5€ und erhalte sofortigen Zugriff auf den Downloadbereich!


    Geändert von Filbo11 (23. June 2016 um 20:42 Uhr) Grund: folge 10 hinzugefügt somit komplett

    [Links sind nur für registrierte und aktivierte Nutzer sichtbar. Klicke hier um dich zu registrieren.]

    Ich wäre allen sehr dankbar, die mir gravierende Fehler in meinen Releases per PN melden

  2. 23 Benutzer sagen Danke:

    2GaMe4LiFe (27. April 2016),Angel86 (1. August 2016),Asuka Langley (25. April 2016),bra1nbug94 (23. April 2016),C3M-O- (15. August 2016),EnvoyXd (24. October 2016),foxtrot (4. November 2016),galudo (20. April 2016),Holzmodem (28. May 2016),imnuan (11. June 2016),kadaj93 (25. September 2016),midnighter (12. June 2016),Near (18. October 2016),old nick (20. April 2016),oscar86 (26. July 2016),Piwi (27. April 2016),re.tischi (28. April 2016),Sonicslash (18. June 2016),Tekk (21. April 2016),Terrorhasii.x3 (2. June 2016),The_Iron (4. July 2016),Vexz (4. July 2016),Zap (2. May 2016)

  3. #2
    Uploader Avatar von Filbo11
    Registriert seit
    Jan 2015
    Beiträge
    927
    Punkte
    17.224
    Errungenschaften:
    TomodachisErste Gruppe1 Jahr registriertCreated Album picturesTagger First Class

    AW: Big Order (2016) [Laufend][Jap-Dub][Ger-Sub][720p-8Bit/10Bit][HDTV] - SHFS

    folge 2 hinzugefügt

    [Links sind nur für registrierte und aktivierte Nutzer sichtbar. Klicke hier um dich zu registrieren.]

    Ich wäre allen sehr dankbar, die mir gravierende Fehler in meinen Releases per PN melden

  4. 1 Benutzer sagt Danke:

    Terrorhasii.x3 (2. June 2016)

  5. #3
    Uploader Avatar von Filbo11
    Registriert seit
    Jan 2015
    Beiträge
    927
    Punkte
    17.224
    Errungenschaften:
    TomodachisErste Gruppe1 Jahr registriertCreated Album picturesTagger First Class

    AW: Big Order (2016) [Laufend][Jap-Dub][Ger-Sub][720p-8Bit/10Bit][HDTV] - SHFS

    folge 3 hinzugefügt

    [Links sind nur für registrierte und aktivierte Nutzer sichtbar. Klicke hier um dich zu registrieren.]

    Ich wäre allen sehr dankbar, die mir gravierende Fehler in meinen Releases per PN melden

  6. 1 Benutzer sagt Danke:

    Terrorhasii.x3 (2. June 2016)

  7. #4
    Uploader Avatar von Filbo11
    Registriert seit
    Jan 2015
    Beiträge
    927
    Punkte
    17.224
    Errungenschaften:
    TomodachisErste Gruppe1 Jahr registriertCreated Album picturesTagger First Class

    AW: Big Order (2016) [Laufend][Jap-Dub][Ger-Sub][720p-8Bit/10Bit][HDTV] - SHFS

    folge 4 hinzugefügt

    [Links sind nur für registrierte und aktivierte Nutzer sichtbar. Klicke hier um dich zu registrieren.]

    Ich wäre allen sehr dankbar, die mir gravierende Fehler in meinen Releases per PN melden

  8. 1 Benutzer sagt Danke:

    Terrorhasii.x3 (2. June 2016)

  9. #5
    Uploader Avatar von Filbo11
    Registriert seit
    Jan 2015
    Beiträge
    927
    Punkte
    17.224
    Errungenschaften:
    TomodachisErste Gruppe1 Jahr registriertCreated Album picturesTagger First Class

    AW: Big Order (2016) [Laufend][Jap-Dub][Ger-Sub][720p-8Bit/10Bit][HDTV] - SHFS

    folge 5 hinzugefügt

    [Links sind nur für registrierte und aktivierte Nutzer sichtbar. Klicke hier um dich zu registrieren.]

    Ich wäre allen sehr dankbar, die mir gravierende Fehler in meinen Releases per PN melden

  10. 1 Benutzer sagt Danke:

    Terrorhasii.x3 (2. June 2016)

  11. #6
    Uploader Avatar von Filbo11
    Registriert seit
    Jan 2015
    Beiträge
    927
    Punkte
    17.224
    Errungenschaften:
    TomodachisErste Gruppe1 Jahr registriertCreated Album picturesTagger First Class

    AW: Big Order (2016) [Laufend][Jap-Dub][Ger-Sub][720p-8Bit/10Bit][HDTV] - SHFS

    folge 6 & 7 hinzugefügt

    [Links sind nur für registrierte und aktivierte Nutzer sichtbar. Klicke hier um dich zu registrieren.]

    Ich wäre allen sehr dankbar, die mir gravierende Fehler in meinen Releases per PN melden

  12. 1 Benutzer sagt Danke:

    Terrorhasii.x3 (2. June 2016)

  13. #7
    Uploader Avatar von Filbo11
    Registriert seit
    Jan 2015
    Beiträge
    927
    Punkte
    17.224
    Errungenschaften:
    TomodachisErste Gruppe1 Jahr registriertCreated Album picturesTagger First Class

    AW: Big Order (2016) [Laufend][Jap-Dub][Ger-Sub][720p-8Bit/10Bit][HDTV] - SHFS

    folge 8 hinzugefügt

    [Links sind nur für registrierte und aktivierte Nutzer sichtbar. Klicke hier um dich zu registrieren.]

    Ich wäre allen sehr dankbar, die mir gravierende Fehler in meinen Releases per PN melden

  14. 1 Benutzer sagt Danke:

    Terrorhasii.x3 (8. June 2016)

  15. #8
    Uploader Avatar von Filbo11
    Registriert seit
    Jan 2015
    Beiträge
    927
    Punkte
    17.224
    Errungenschaften:
    TomodachisErste Gruppe1 Jahr registriertCreated Album picturesTagger First Class

    AW: Big Order (2016) [Laufend][Jap-Dub][Ger-Sub][720p-8Bit/10Bit][HDTV] - SHFS

    folge 9 hinzugefügt

    [Links sind nur für registrierte und aktivierte Nutzer sichtbar. Klicke hier um dich zu registrieren.]

    Ich wäre allen sehr dankbar, die mir gravierende Fehler in meinen Releases per PN melden

  16. 1 Benutzer sagt Danke:

    Terrorhasii.x3 (25. June 2016)

  17. #9
    Uploader Avatar von Filbo11
    Registriert seit
    Jan 2015
    Beiträge
    927
    Punkte
    17.224
    Errungenschaften:
    TomodachisErste Gruppe1 Jahr registriertCreated Album picturesTagger First Class

    AW: Big Order (2016) [Jap-Dub][Ger-Sub][720p-8Bit/10Bit][HDTV] - SHFS

    folge 10 hinzugefügt somit komplett

    [Links sind nur für registrierte und aktivierte Nutzer sichtbar. Klicke hier um dich zu registrieren.]

    Ich wäre allen sehr dankbar, die mir gravierende Fehler in meinen Releases per PN melden

  18. 1 Benutzer sagt Danke:

    Terrorhasii.x3 (25. June 2016)

Stichworte

Lesezeichen

Berechtigungen

  • Neue Themen erstellen: Nein
  • Themen beantworten: Nein
  • Anhänge hochladen: Nein
  • Beiträge bearbeiten: Nein
  •  

1 2 3 4 5 6 7 8 9 10 11 12 13 14 15 16 17 18 19 20 21 22 23 24 25 26 27 28 29 30 31 32 33 34 35 36 37 38 39 40 41 42 43 44 45 46 47 48 49 50 51 52 53 54 55 56 57 58 59 60 61 62 63 64 65 66 67 68 69 70 71 72 73 74 75 76 77 78 79 80 81 82 83 84 85 86 87 88 89 90 91 92 93 94 95 96 97 98 99 100 101 102 103 104 105 106 107 108 109 110 111 112 113 114 115 116 117 118 119 120 121 122 123 124 125 126 127 128 129 130 131 132 133 134 135 136 137 138 139 140 141 142 143 144 145 146 147 148 149 150 151 152 153 154 155 156 157 158