Ergebnis 1 bis 1 von 1

Thema: Big Order [Jap-Dub][Ger-Sub][720p/1080p][BluRay] - ASS

Dieser Thread wurde noch nicht bewertet. Bewerte ihn doch, wenn er dir gefällt!
  1. #1
    Kami-sama Avatar von galudo
    Registriert seit
    Mar 2015
    Beiträge
    1.370
    Punkte
    25.951
    Errungenschaften:
    TomodachisTagger ProfiHyperaktivSenpaiGang Leader

    Big Order [Jap-Dub][Ger-Sub][720p/1080p][BluRay] - ASS

    Big Order
    ビッグオーダー
    Big Order OVA



    Kurzbeschreibung
    Der Schüler Eiji Hoshimiya verbirgt ein großes Geheimnis: Nachdem er sich als Kind die Zerstörung der Welt gewünscht hat, bekommt er eine Macht verliehen, die Order genannt wird. Mit ihr kann er seine Wünsche in Erfüllung gehen lassen.
    Format: MP4
    Sprache: Japanisch
    Untertitel: Deutsch (HardSub)
    Genre: Action, Shounen, Super-Power
    Größe bei 720p: 440 MB
    Größe bei 1080p: 328 MB
    Dauer: ~ 38 Minuten
    Jahr: 2015
    Video: 720p & 1080p
    Source: BluRay
    Subgroup / Releasegroup: AoiSora-Subs

    Hoster: Share-Online | Uploaded
    Passwort: siehe unten
    Onlinestatus: HD|FHD


    Datei-Info
    MediaInfo
    720p
    Code:
    General
    Complete name                  : [ASS]Big Order - OVA(BD 720p h264 AAC)[ED834995].mp4
    Format                         : MPEG-4
    Format profile                 : Base Media
    Codec ID                       : isom
    File size                      : 440 MiB
    Duration                       : 27mn 26s
    Overall bit rate mode          : Variable
    Overall bit rate               : 2 243 Kbps
    Encoded date                   : UTC 2016-04-11 18:15:06
    Tagged date                    : UTC 2016-04-11 18:15:06
    Writing application            : Yamb 2.1.0.0 [http://yamb.unite-video.com]
    
    Video
    ID                             : 1
    Format                         : AVC
    Format/Info                    : Advanced Video Codec
    Format profile                 : [email protected]
    Format settings, CABAC         : Yes
    Format settings, ReFrames      : 9 frames
    Codec ID                       : avc1
    Codec ID/Info                  : Advanced Video Coding
    Duration                       : 27mn 26s
    Bit rate                       : 2 026 Kbps
    Maximum bit rate               : 5 197 Kbps
    Width                          : 1 280 pixels
    Height                         : 720 pixels
    Display aspect ratio           : 16:9
    Frame rate mode                : Constant
    Frame rate                     : 23.976 fps
    Color space                    : YUV
    Chroma subsampling             : 4:2:0
    Bit depth                      : 8 bits
    Scan type                      : Progressive
    Bits/(Pixel*Frame)             : 0.092
    Stream size                    : 398 MiB (90%)
    Writing library                : x264 core 148 r2665 a01e339
    Encoding settings              : cabac=1 / ref=9 / deblock=1:0:0 / analyse=0x3:0x133 / me=umh / subme=9 / psy=1 / psy_rd=1.00:0.00 / mixed_ref=1 / me_range=32 / chroma_me=1 / trellis=2 / 8x8dct=1 / cqm=0 / deadzone=21,11 / fast_pskip=0 / chroma_qp_offset=-2 / threads=12 / lookahead_threads=2 / sliced_threads=0 / nr=0 / decimate=0 / interlaced=0 / bluray_compat=0 / constrained_intra=0 / bframes=9 / b_pyramid=2 / b_adapt=2 / b_bias=0 / direct=3 / weightb=1 / open_gop=0 / weightp=2 / keyint=250 / keyint_min=23 / scenecut=40 / intra_refresh=0 / rc_lookahead=80 / rc=crf / mbtree=1 / crf=17.0 / qcomp=0.80 / qpmin=0 / qpmax=69 / qpstep=4 / vbv_maxrate=2560 / vbv_bufsize=5120 / crf_max=0.0 / nal_hrd=none / filler=0 / ip_ratio=1.40 / aq=3:0.70
    Encoded date                   : UTC 2016-04-12 18:12:12
    Tagged date                    : UTC 2016-04-11 18:15:08
    Color range                    : Limited
    Color primaries                : BT.709
    Transfer characteristics       : BT.709
    Matrix coefficients            : BT.709
    
    Audio
    ID                             : 2
    Format                         : AAC
    Format/Info                    : Advanced Audio Codec
    Format profile                 : LC
    Codec ID                       : 40
    Duration                       : 27mn 26s
    Bit rate mode                  : Variable
    Bit rate                       : 213 Kbps
    Maximum bit rate               : 255 Kbps
    Channel(s)                     : 2 channels
    Channel positions              : Front: L R
    Sampling rate                  : 48.0 KHz
    Compression mode               : Lossy
    Stream size                    : 41.9 MiB (10%)
    Encoded date                   : UTC 2016-04-11 18:15:07
    Tagged date                    : UTC 2016-04-11 18:15:08
    1080p
    Code:
    General
    Complete name                  : [ASS]Big Order - OVA(BD 1080p h264 AAC)[18F79919].mp4
    Format                         : MPEG-4
    Format profile                 : Base Media
    Codec ID                       : isom
    File size                      : 329 MiB
    Duration                       : 27mn 26s
    Overall bit rate mode          : Variable
    Overall bit rate               : 1 673 Kbps
    Encoded date                   : UTC 2016-04-11 16:35:05
    Tagged date                    : UTC 2016-04-11 16:35:05
    Writing application            : Yamb 2.1.0.0 [http://yamb.unite-video.com]
    
    Video
    ID                             : 1
    Format                         : AVC
    Format/Info                    : Advanced Video Codec
    Format profile                 : [email protected]
    Format settings, CABAC         : Yes
    Format settings, ReFrames      : 9 frames
    Codec ID                       : avc1
    Codec ID/Info                  : Advanced Video Coding
    Duration                       : 27mn 26s
    Bit rate                       : 1 456 Kbps
    Maximum bit rate               : 4 490 Kbps
    Width                          : 1 920 pixels
    Height                         : 1 080 pixels
    Display aspect ratio           : 16:9
    Frame rate mode                : Constant
    Frame rate                     : 23.976 fps
    Color space                    : YUV
    Chroma subsampling             : 4:2:0
    Bit depth                      : 8 bits
    Scan type                      : Progressive
    Bits/(Pixel*Frame)             : 0.029
    Stream size                    : 286 MiB (87%)
    Writing library                : x264 core 148 r2665 a01e339
    Encoding settings              : cabac=1 / ref=9 / deblock=1:0:0 / analyse=0x3:0x133 / me=umh / subme=9 / psy=1 / psy_rd=1.00:0.00 / mixed_ref=1 / me_range=32 / chroma_me=1 / trellis=2 / 8x8dct=1 / cqm=0 / deadzone=21,11 / fast_pskip=0 / chroma_qp_offset=-2 / threads=12 / lookahead_threads=2 / sliced_threads=0 / nr=0 / decimate=0 / interlaced=0 / bluray_compat=0 / constrained_intra=0 / bframes=9 / b_pyramid=2 / b_adapt=2 / b_bias=0 / direct=3 / weightb=1 / open_gop=0 / weightp=2 / keyint=250 / keyint_min=23 / scenecut=40 / intra_refresh=0 / rc_lookahead=80 / rc=crf / mbtree=1 / crf=17.0 / qcomp=0.80 / qpmin=0 / qpmax=69 / qpstep=4 / vbv_maxrate=2560 / vbv_bufsize=5120 / crf_max=0.0 / nal_hrd=none / filler=0 / ip_ratio=1.40 / aq=3:0.70
    Encoded date                   : UTC 2016-04-12 16:22:01
    Tagged date                    : UTC 2016-04-11 16:35:07
    Color range                    : Limited
    Color primaries                : BT.709
    Transfer characteristics       : BT.709
    Matrix coefficients            : BT.709
    
    Audio
    ID                             : 2
    Format                         : AAC
    Format/Info                    : Advanced Audio Codec
    Format profile                 : LC
    Codec ID                       : 40
    Duration                       : 27mn 26s
    Bit rate mode                  : Variable
    Bit rate                       : 213 Kbps
    Maximum bit rate               : 255 Kbps
    Channel(s)                     : 2 channels
    Channel positions              : Front: L R
    Sampling rate                  : 48.0 KHz
    Compression mode               : Lossy
    Stream size                    : 41.9 MiB (13%)
    Encoded date                   : UTC 2016-04-11 16:35:06
    Tagged date                    : UTC 2016-04-11 16:35:07


    OVA 01 / 01 online

    || Download & Passwort ||


    Geschützter Bereich - Bedanke dich beim Poster, um den Bereich sehen zu können
    Hier erfährst Du wie Du Dich bedanken kannst oder werde jetzt Premium Mitglied ab einer Spende von 5€ und erhalte sofortigen Zugriff auf den Downloadbereich!

    Weiteres von Big Order:
    [Links sind nur für registrierte und aktivierte Nutzer sichtbar. Klicke hier um dich zu registrieren.]
    [Links sind nur für registrierte und aktivierte Nutzer sichtbar. Klicke hier um dich zu registrieren.]
    Geändert von galudo (12. October 2016 um 18:29 Uhr)
    SUPPORT UND REUP ANFRAGEN NUR >> [Links sind nur für registrierte und aktivierte Nutzer sichtbar. Klicke hier um dich zu registrieren.] <<
    Bitte IMMER den Thread-Link mitschicken.

  2. 4 Benutzer sagen Danke:

    acer25 (5. June 2016),Asuka Langley (25. April 2016),midnighter (12. June 2016),Terrorhasii.x3 (2. June 2016)

Lesezeichen

Berechtigungen

  • Neue Themen erstellen: Nein
  • Themen beantworten: Nein
  • Anhänge hochladen: Nein
  • Beiträge bearbeiten: Nein
  •  

1 2 3 4 5 6 7 8 9 10 11 12 13 14 15 16 17 18 19 20 21 22 23 24 25 26 27 28 29 30 31 32 33 34 35 36 37 38 39 40 41 42 43 44 45 46 47 48 49 50 51 52 53 54 55 56 57 58 59 60 61 62 63 64 65 66 67 68 69 70 71 72 73 74 75 76 77 78 79 80 81 82 83 84 85 86 87 88 89 90 91 92 93 94 95 96 97 98 99 100 101 102 103 104 105 106 107 108 109 110 111 112 113 114 115 116 117 118 119 120 121 122 123 124 125 126 127 128 129 130 131 132 133 134 135 136 137 138 139 140 141 142 143 144 145 146 147 148 149 150 151 152 153 154 155 156 157 158