Ergebnis 1 bis 1 von 1

Thema: BlazBlue: Alter Memory [Jap-Dub][Ger-Sub][720p][HDTV]

Dieser Thread wurde noch nicht bewertet. Bewerte ihn doch, wenn er dir gefällt!
  1. #1
    United we Stand Avatar von 00Ryuji00
    Registriert seit
    Oct 2012
    Beiträge
    3.896
    Punkte
    99.519
    Errungenschaften:
    TomodachisGang LeaderHikikomoriTagger Amateur50000 Erfahrungspunkte

    BlazBlue: Alter Memory [Jap-Dub][Ger-Sub][720p][HDTV]

    BlazBlue: Alter Memory
    ブレイブルー オルター・メモリー






    Kurzbeschreibung:
    Dezember 2199. Während der Begrüßung des neuen Jahres wird bekanntgegeben, dass Ragna the Bloodedge, ein SS-Klasse Rebell mit dem höchsten Kopfgeld, in der 13. hierarchischen Stadt Kagutsuchi aufgetaucht ist. Sein Ziel ist die Zerstörung des Kontrollsystems der Welt. Dabei hat er jede Menge Kopfgeldjäger auf den Fersen...


    Sprache: Japanisch
    Untertitel: Deutsch
    Episodenanzahl: 12/12
    Format: .mp4
    Auflösung: 720p (16:9)
    Codec: x264
    Gruppe: Chinurarete-Subs
    Hoster: Share-Online ; Uploaded


    Datei Info:
    Spoiler

    Code:
    
    
    Format                                   : MPEG-4
    Format profile                           : Base Media
    Codec ID                                 : isom
    File size                                : 472 MiB
    Duration                                 : 23mn 9s
    Overall bit rate mode                    : Variable
    Overall bit rate                         : 2 853 Kbps
    Encoded date                             : UTC 2013-11-09 18:59:48
    Tagged date                              : UTC 2013-11-09 18:59:48
    Writing application                      : Yamb 2.1.0.0 [http://yamb.unite-video.com]
    
    Video
    ID                                       : 1
    Format                                   : AVC
    Format/Info                              : Advanced Video Codec
    Format profile                           : [email protected]
    Format settings, CABAC                   : Yes
    Format settings, ReFrames                : 9 frames
    Codec ID                                 : avc1
    Codec ID/Info                            : Advanced Video Coding
    Duration                                 : 23mn 9s
    Bit rate                                 : 2 597 Kbps
    Maximum bit rate                         : 19.3 Mbps
    Width                                    : 1 280 pixels
    Height                                   : 720 pixels
    Display aspect ratio                     : 16:9
    Frame rate mode                          : Constant
    Frame rate                               : 23.976 fps
    Color space                              : YUV
    Chroma subsampling                       : 4:2:0
    Bit depth                                : 8 bits
    Scan type                                : Progressive
    Bits/(Pixel*Frame)                       : 0.118
    Stream size                              : 430 MiB (91%)
    Writing library                          : x264 core 122 r2184 5c85e0a
    Encoding settings                        : cabac=1 / ref=9 / deblock=1:0:0 / analyse=0x1:0x131 / me=umh / subme=11 / psy=1 / psy_rd=1.00:0.00 / mixed_ref=1 / me_range=40 / chroma_me=1 / trellis=2 / 8x8dct=0 / cqm=0 / deadzone=21,11 / fast_pskip=0 / chroma_qp_offset=-2 / threads=6 / sliced_threads=0 / nr=0 / decimate=0 / interlaced=0 / bluray_compat=0 / constrained_intra=0 / bframes=16 / b_pyramid=2 / b_adapt=2 / b_bias=0 / direct=1 / weightb=1 / open_gop=0 / weightp=2 / keyint=250 / keyint_min=23 / scenecut=40 / intra_refresh=0 / rc_lookahead=40 / rc=crf / mbtree=1 / crf=16.0 / qcomp=0.70 / qpmin=0 / qpmax=69 / qpstep=4 / ip_ratio=1.40 / aq=2:1.00
    Encoded date                             : UTC 2013-11-10 10:21:45
    Tagged date                              : UTC 2013-11-09 19:00:02
    
    Audio
    ID                                       : 2
    Format                                   : AAC
    Format/Info                              : Advanced Audio Codec
    Format profile                           : LC
    Codec ID                                 : 40
    Duration                                 : 23mn 9s
    Bit rate mode                            : Variable
    Bit rate                                 : 252 Kbps
    Maximum bit rate                         : 260 Kbps
    Channel count                            : 2 channels
    Channel positions                        : Front: L R
    Sampling rate                            : 48.0 KHz
    Compression mode                         : Lossy
    Stream size                              : 41.8 MiB (9%)
    Encoded date                             : UTC 2013-11-09 19:00:01
    Tagged date                              : UTC 2013-11-09 19:00:02
    
    






    Geschützter Bereich - Bedanke dich beim Poster, um den Bereich sehen zu können
    Hier erfährst Du wie Du Dich bedanken kannst oder werde jetzt Premium Mitglied ab einer Spende von 5€ und erhalte sofortigen Zugriff auf den Downloadbereich!

    !!!Alle Anliegen bezüglich Uploads werden nur mit direktem Threadlink zum Angebot bearbeitet!!!

    Re-Uploadanfragen nur per PN - Ihr könnt mir auch Listen schicken

    Re-Uploads erfolgen meist innerhalb 24h, kann aber auch bis zu 7 Tage dauern

    [Links sind nur für registrierte und aktivierte Nutzer sichtbar. Klicke hier um dich zu registrieren.] | [Links sind nur für registrierte und aktivierte Nutzer sichtbar. Klicke hier um dich zu registrieren.] | >[Links sind nur für registrierte und aktivierte Nutzer sichtbar. Klicke hier um dich zu registrieren.]<
    [Links sind nur für registrierte und aktivierte Nutzer sichtbar. Klicke hier um dich zu registrieren.]

  2. 23 Benutzer sagen Danke:

    Alucard1412 (11. March 2016),Asuka Langley (9. April 2016),Bloodywaffe (16. February 2016),classius (29. July 2015),Cloud002 (17. August 2015),Cooky1988 (29. September 2015),Drachengott (30. July 2015),Fox Faram (24. November 2015),Issei (30. July 2015),Kurzey (23. August 2015),midnighter (1. August 2015),Miiko_Chan (31. July 2015),Modell_Thomas (2. August 2015),Otonashi Yuzuru (2. February 2016),Over (8. January 2016),Paraxamos (23. January 2016),paulito.1 (21. October 2015),Pure (14. September 2015),Raphael96 (15. May 2016),Rin58 (3. December 2015),Tschu23 (29. July 2015),xellos (29. November 2015),xZodiac (4. August 2015)

Lesezeichen

Berechtigungen

  • Neue Themen erstellen: Nein
  • Themen beantworten: Nein
  • Anhänge hochladen: Nein
  • Beiträge bearbeiten: Nein
  •  

1 2 3 4 5 6 7 8 9 10 11 12 13 14 15 16 17 18 19 20 21 22 23 24 25 26 27 28 29 30 31 32 33 34 35 36 37 38 39 40 41 42 43 44 45 46 47 48 49 50 51 52 53 54 55 56 57 58 59 60 61 62 63 64 65 66 67 68 69 70 71 72 73 74 75 76 77 78 79 80 81 82 83 84 85 86 87 88 89 90 91 92 93 94 95 96 97 98 99 100 101 102 103 104 105 106 107 108 109 110 111 112 113 114 115 116 117 118 119 120 121 122 123 124 125 126 127 128 129 130 131 132 133 134 135 136 137 138 139 140 141 142 143 144 145 146 147 148 149 150 151 152 153 154 155 156 157 158