Ergebnis 1 bis 1 von 1

Thema: Bokura wa Minna Kawaisou [Ger Sub][Jap Dub][720p][HDTV]

Dieser Thread wurde noch nicht bewertet. Bewerte ihn doch, wenn er dir gefällt!
  1. #1
    Erfahrener Otaku Avatar von Kajiro
    Registriert seit
    Mar 2014
    Ort
    Irgendwo im Nirgendwo
    Beiträge
    213
    Punkte
    10.403
    Errungenschaften:
    10000 ErfahrungspunkteHikikomori

    Bokura wa Minna Kawaisou [Ger Sub][Jap Dub][720p][HDTV]


    Bokura wa Minna Kawaisou



    Kurzbeschreibung:
    Frisch auf der High School und aufgrund eines beruflichen Umzugs seiner Eltern nun auch gleich erstmals unabhängig in einem Wohnheim; Usa sieht sich in einen neuen Lebensabschnitt eintreten und alles was ihm jetzt eigentlich noch fehlt ist eine Freundin. Intelligent und kultiviert soll sie sein und wie es der Zufall so will, trifft Usa in der Schulbibliothek genau auf so ein Mädchen und verliebt sich auf den ersten Blick in sie. Noch beschwingt von diesem Vorfall tritt er nach der Schule seinen ersten Gang in sein neues Wohnheim an, nur um feststellen zu müssen, dass er sich dort ein Zimmer mit einem Perversen teilen soll. Sein Vorhaben seinem neuen Domizil gleich wieder den Rücken zu kehren wird jedoch je verworfen, als er beim Verlassen die Tür öffnet und das Mädchen aus der Bibliothek vor ihm steht, das sich als Ritsu vorstellt, eine der Bewohnerinnen des Hauses.


    Sprache: Japanisch
    Untertitel: Deutsch
    Folgen: 12/12
    Größe: ~220MB
    Format:MP4
    Auflösung:1280x720
    Genre:Romantische Komödie
    Sub Gruppe:[Pure-Anime]


    Datei Info:
    Spoiler
    Video
    ID : 1
    Format : AVC
    Format/Info : Advanced Video Codec
    Format profile : [email protected]
    Format settings, CABAC : Yes
    Format settings, ReFrames : 4 frames
    Codec ID : avc1
    Codec ID/Info : Advanced Video Coding
    Duration : 24mn 11s
    Bit rate : 1 107 Kbps
    Maximum bit rate : 9 144 Kbps
    Width : 1 280 pixels
    Height : 720 pixels
    Display aspect ratio : 16:9
    Frame rate mode : Constant
    Frame rate : 23.976 fps
    Color space : YUV
    Chroma subsampling : 4:2:0
    Bit depth : 8 bits
    Scan type : Progressive
    Bits/(Pixel*Frame) : 0.050
    Stream size : 192 MiB (88%)
    Title : 264#trackID=1:[email protected]
    Writing library : x264 core 133 r2334 a3ac64b
    Encoding settings : cabac=1 / ref=3 / deblock=1:0:0 / analyse=0x3:0x113 / me=hex / subme=7 / psy=1 / psy_rd=1.00:0.00 / mixed_ref=1 / me_range=16 / chroma_me=1 / trellis=1 / 8x8dct=1 / cqm=0 / deadzone=21,11 / fast_pskip=1 / chroma_qp_offset=-2 / threads=12 / lookahead_threads=2 / sliced_threads=0 / nr=0 / decimate=1 / interlaced=0 / bluray_compat=0 / constrained_intra=0 / bframes=3 / b_pyramid=2 / b_adapt=1 / b_bias=0 / direct=1 / weightb=1 / open_gop=0 / weightp=2 / keyint=240 / keyint_min=23 / scenecut=40 / intra_refresh=0 / rc_lookahead=40 / rc=2pass / mbtree=1 / bitrate=1107 / ratetol=1.0 / qcomp=0.60 / qpmin=0 / qpmax=69 / qpstep=4 / cplxblur=20.0 / qblur=0.5 / ip_ratio=1.40 / aq=1:1.00
    Encoded date : UTC 2014-04-12 05:33:45
    Tagged date : UTC 2014-04-12 05:33:48

    Audio
    ID : 2
    Format : AAC
    Format/Info : Advanced Audio Codec
    Format profile : LC
    Codec ID : 40
    Duration : 24mn 12s
    Bit rate mode : Variable
    Bit rate : 144 Kbps
    Maximum bit rate : 191 Kbps
    Channel(s) : 2 channels
    Channel positions : Front: L R
    Sampling rate : 44.1 KHz
    Compression mode : Lossy
    Stream size : 24.5 MiB (11%)
    Encoded date : UTC 2014-04-12 05:19:06
    Tagged date : UTC 2014-04-12 05:33:48







    Geschützter Bereich - Bedanke dich beim Poster, um den Bereich sehen zu können
    Hier erfährst Du wie Du Dich bedanken kannst oder werde jetzt Premium Mitglied ab einer Spende von 5€ und erhalte sofortigen Zugriff auf den Downloadbereich!

    Inaktiver Uploader!

    Alle Re-Upload-Anfragen öffentlich im [Links sind nur für registrierte und aktivierte Nutzer sichtbar. Klicke hier um dich zu registrieren.] posten!

  2. 88 Benutzer sagen Danke:

    Anzeigen

    Aizen-Sama (5. January 2016),Antipott (21. September 2014),Bitfire (1. November 2015),BlackLotus (7. October 2014),Bloodywaffe (21. December 2015),chris1989 (28. September 2015),Chrissi89 (12. April 2015),coldbears48 (21. February 2016),Cooky1988 (10. November 2015),Ðāɱøȵ™ (3. March 2015),Darth Affe (6. April 2015),dionys (5. November 2015),doN1337 (24. November 2015),Drachengott (31. July 2014),Dylan (27. November 2014),exo (29. July 2014),FantasticZ (21. November 2015),Flint (26. August 2014),Gaara (15. October 2015),Garbor (6. April 2016),gunnar1 (8. January 2015),Haekendes_inactive (9. August 2014),Hapy (27. July 2015),hnnnn (5. November 2015),Hoodyhood (12. August 2014),hUmiLitY (12. March 2015),IHIIDIHI (5. August 2014),InFaerno (22. June 2015),iPwnage (9. December 2015),isiprimax (21. November 2014),kanita (3. August 2014),kei (6. February 2015),Kita_Kitsune (20. June 2015),Kokujou (3. March 2015),koppi200_inactive (21. September 2014),KrachbumAlex (8. February 2016),krausi22 (5. March 2015),lair1995 (29. November 2015),Ley0304 (14. May 2015),LOL Meister (30. August 2015),mar3el (28. December 2014),MatrixEsl (11. January 2016),MattDeox (4. September 2016),merb (26. May 2016),midnighter (19. May 2015),Moody (25. July 2015),Nanashi (19. November 2015),Nanatzusaya (9. February 2016),NatsudopeOn (22. August 2014),nemo (7. January 2016),Noire16 (27. July 2015),old nick (15. March 2015),onepiecefreak (17. June 2015),Otonashi Yuzuru (2. February 2016),Pazu (1. August 2016),phtop (4. August 2014),Ramirez (30. July 2014),Raven (30. July 2014),rekiznuh1 (1. November 2016),Roysento (9. August 2014),S1M0N93 (18. August 2014),S4nCh3z (15. November 2016),sangheilie (13. April 2015),schalino (16. May 2015),schwiemann (3. February 2015),SciTeC (7. August 2015),scrabbler_inactive (22. September 2014),SerienStream (25. February 2015),sharline (25. July 2015),Silencio (14. November 2016),Skully_88 (2. January 2016),Smitecrawler (9. December 2015),SnowCat (1. August 2014),Stones (27. October 2015),TakashiKudo (13. August 2015),Tama (15. September 2014),Tekk (24. August 2014),Tet2 (13. September 2014),Tidus18 (17. July 2015),tokage (27. August 2015),tokyodrift (24. November 2014),Tylsar_inactive (9. January 2015),Varkoo (4. April 2015),videoseven (15. April 2015),x6100x (14. August 2015),YozoraShiku (9. April 2015),Zap (5. September 2014),ZeroCM89 (5. January 2016)

Lesezeichen

Berechtigungen

  • Neue Themen erstellen: Nein
  • Themen beantworten: Nein
  • Anhänge hochladen: Nein
  • Beiträge bearbeiten: Nein
  •  

1 2 3 4 5 6 7 8 9 10 11 12 13 14 15 16 17 18 19 20 21 22 23 24 25 26 27 28 29 30 31 32 33 34 35 36 37 38 39 40 41 42 43 44 45 46 47 48 49 50 51 52 53 54 55 56 57 58 59 60 61 62 63 64 65 66 67 68 69 70 71 72 73 74 75 76 77 78 79 80 81 82 83 84 85 86 87 88 89 90 91 92 93 94 95 96 97 98 99 100 101 102 103 104 105 106 107 108 109 110 111 112 113 114 115 116 117 118 119 120 121 122 123 124 125 126 127 128 129 130 131 132 133 134 135 136 137 138 139 140 141 142 143 144 145 146 147 148 149 150 151 152 153 154 155 156 157 158