Ergebnis 1 bis 1 von 1

Thema: Bouken! Iczer 3 [Jap-Dub][Ger-Sub][480p][DVD-Rip]

Dieser Thread wurde noch nicht bewertet. Bewerte ihn doch, wenn er dir gefällt!
  1. #1
    Erfahrener Otaku Avatar von ohlong
    Registriert seit
    Sep 2013
    Ort
    Im Herzen Deutschlands
    Beiträge
    151
    Punkte
    5.807
    Errungenschaften:
    TomodachisTagger Profi5000 ErfahrungspunkteHikikomori

    Bouken! Iczer 3 [Jap-Dub][Ger-Sub][480p][DVD-Rip]



    Bouken! Iczer 3
    冒険!イクサー3
    Adventures With Iczer 3
    Iczer 3
    Iczer Reborn





    Kurzbeschreibung
    In den Tiefen des Weltalls, herrscht ein Kampf zwischen Gut und Böse, der das Gleichgewicht der Erde gefährdet. Die böse Neos Gold schickt ihre Streitkräfte zur Erde mit nur einem Ziel: die totale Zerstörung der Menschheit. Jetzt liegt es an Iczer 3, der jüngeren Schwester von Iczer 1, die Erde gegen die tödliche Armada von Neos Gold zu verteidigen.

    Sprache: Japanisch
    Untertitel: Deutsch
    Genre: Action, Gegenwart, Sci-Fi,
    Drama, Monster, Super Robots
    Source: DVD
    Episoden: 06/06
    Format: mp4
    Video-Codec: x264
    Resolution: 640x480
    Größe: 222-336MB
    Releaser: Cosmo Cleaner-Subs
    Hoster: Share-Online, Uploaded


    Technische Informationen
    Spoiler
    Code:
    Format                                   : MPEG-4
    Format profile                           : Base Media
    Codec ID                                 : isom
    File size                                : 279 MiB
    Duration                                 : 30mn 29s
    Overall bit rate mode                    : Variable
    Overall bit rate                         : 1 280 Kbps
    Encoded date                             : UTC 2012-10-22 00:39:41
    Tagged date                              : UTC 2012-10-22 00:39:41
    
    Video
    ID                                       : 1
    Format                                   : AVC
    Format/Info                              : Advanced Video Codec
    Format profile                           : [email protected]
    Format settings, CABAC                   : Yes
    Format settings, ReFrames                : 3 frames
    Codec ID                                 : avc1
    Codec ID/Info                            : Advanced Video Coding
    Duration                                 : 30mn 29s
    Bit rate mode                            : Variable
    Bit rate                                 : 1 109 Kbps
    Maximum bit rate                         : 15.0 Mbps
    Width                                    : 640 pixels
    Height                                   : 480 pixels
    Display aspect ratio                     : 4:3
    Frame rate mode                          : Constant
    Frame rate                               : 23.810 fps
    Color space                              : YUV
    Chroma subsampling                       : 4:2:0
    Bit depth                                : 8 bits
    Scan type                                : Progressive
    Bits/(Pixel*Frame)                       : 0.152
    Stream size                              : 242 MiB (87%)
    Writing library                          : x264 core 125 r2200 999b753
    Encoding settings                        : cabac=1 / ref=4 / deblock=1:1:1 / analyse=0x3:0x133 / me=umh / subme=10 / psy=1 / psy_rd=0.40:0.00 / mixed_ref=1 / me_range=24 / chroma_me=1 / trellis=2 / 8x8dct=1 / cqm=0 / deadzone=21,11 / fast_pskip=1 / chroma_qp_offset=-2 / threads=6 / lookahead_threads=1 / sliced_threads=0 / slices=4 / nr=0 / decimate=1 / interlaced=0 / bluray_compat=0 / constrained_intra=0 / bframes=3 / b_pyramid=1 / b_adapt=2 / b_bias=0 / direct=3 / weightb=1 / open_gop=0 / weightp=0 / keyint=23 / keyint_min=1 / scenecut=40 / intra_refresh=0 / rc_lookahead=23 / rc=crf / mbtree=1 / crf=18.0 / qcomp=0.60 / qpmin=0 / qpmax=69 / qpstep=4 / vbv_maxrate=15000 / vbv_bufsize=15000 / crf_max=0.0 / nal_hrd=vbr / ip_ratio=1.40 / aq=1:0.60
    Encoded date                             : UTC 2012-10-22 00:39:41
    Tagged date                              : UTC 2012-10-22 00:41:25
    Color primaries                          : BT.709
    Transfer characteristics                 : BT.709
    Matrix coefficients                      : BT.709
    
    Audio
    ID                                       : 2
    Format                                   : AAC
    Format/Info                              : Advanced Audio Codec
    Format profile                           : LC
    Codec ID                                 : 40
    Duration                                 : 30mn 29s
    Bit rate mode                            : Variable
    Bit rate                                 : 168 Kbps
    Maximum bit rate                         : 192 Kbps
    Channel(s)                               : 2 channels
    Channel positions                        : Front: L R
    Sampling rate                            : 48.0 KHz
    Compression mode                         : Lossy
    Stream size                              : 36.6 MiB (13%)
    Encoded date                             : UTC 2012-10-22 00:41:24
    Tagged date                              : UTC 2012-10-22 00:41:25



    Password
    Geschützter Bereich - Bedanke dich beim Poster, um den Bereich sehen zu können
    Hier erfährst Du wie Du Dich bedanken kannst oder werde jetzt Premium Mitglied ab einer Spende von 5€ und erhalte sofortigen Zugriff auf den Downloadbereich!

    Geändert von ohlong (12. January 2016 um 13:56 Uhr)

  2. 6 Benutzer sagen Danke:

    Draagul (24. July 2014),haltdiefresse (3. December 2015),kanita (26. July 2014),midnighter (10. November 2014),prinzvegeta (26. November 2015),SnowCat (24. July 2014)

Lesezeichen

Berechtigungen

  • Neue Themen erstellen: Nein
  • Themen beantworten: Nein
  • Anhänge hochladen: Nein
  • Beiträge bearbeiten: Nein
  •  

1 2 3 4 5 6 7 8 9 10 11 12 13 14 15 16 17 18 19 20 21 22 23 24 25 26 27 28 29 30 31 32 33 34 35 36 37 38 39 40 41 42 43 44 45 46 47 48 49 50 51 52 53 54 55 56 57 58 59 60 61 62 63 64 65 66 67 68 69 70 71 72 73 74 75 76 77 78 79 80 81 82 83 84 85 86 87 88 89 90 91 92 93 94 95 96 97 98 99 100 101 102 103 104 105 106 107 108 109 110 111 112 113 114 115 116 117 118 119 120 121 122 123 124 125 126 127 128 129 130 131 132 133 134 135 136 137 138 139 140 141 142 143 144 145 146 147 148 149 150 151 152 153 154 155 156 157 158