Ergebnis 1 bis 3 von 3

Thema: Bungou Stray Dogs (2016) [Laufend][Jap-Dub][Ger-Sub][720p][HDTV] - L-S

Dieser Thread wurde noch nicht bewertet. Bewerte ihn doch, wenn er dir gefällt!
  1. #1
    Erfahrener Otaku Avatar von DjRayleigh
    Registriert seit
    Jul 2015
    Beiträge
    195
    Punkte
    2.962
    Errungenschaften:
    1000 ErfahrungspunkteHyperaktivErste GruppeTomodachisSenpai

    Bungou Stray Dogs (2016) [Laufend][Jap-Dub][Ger-Sub][720p][HDTV] - L-S


    Bungou Stray Dogs (2016)






    Kurzbeschreibung:
    Zitat Zitat von AniSearch.com
    Neben dem Militär und der Polizei gibt es ein ganz besonderes Detektivbüro: Die Arms Detective Company. Die Angestellten dort lösen ihre Fälle auf eine ganz andere Weise, denn sie besitzen übernatürliche Fähigkeiten und nehmen die Aufträge an, die zu gefährlich für andere sind.
    Nakajima Atsushi wohnte bis vor kurzem in einem Waisenhaus, jedoch wurde er dort rausgeschmissen und war so gezwungen, auf der Straße zu leben. Als er am Rande des Verhungerns steht, bewahrt er den Detektiv Dazai Osamu, der für die Arms Detective Company arbeitet, davor, Selbstmord zu begehen.
    Osamu und sein Partner Kunikida sind gerade dabei, einen wichtigen Fall zu lösen und scheinbar gibt es viele Verbindungen zu Atsushi. Ihnen wird klar, dass sich sein Leben komplett verändern wird …


    Spieldauer: 24min
    Genre: Thriller
    Nebengenres: Action, Drama, Fantasy, Krimi, Mystery, Romanze, Thriller
    Jahr: 2016
    Sprache: Japanisch
    Untertitel: Deutsch
    Größe pro Folge: ~321 MiB
    Episodenanzahl: 7/12
    Format: MP4
    Auflösung: 720p (16:9)
    Videocodec: x264 (AVC)
    Audiocodec: AAC
    Releasegruppe: L-S
    Hoster: Uploaded


    MediaInfo
    Code:
    
    Format                                   : MPEG-4
    Format profile                           : Base Media
    Codec ID                                 : isom
    File size                                : 321 MiB
    Duration                                 : 23mn 40s
    Overall bit rate mode                    : Variable
    Overall bit rate                         : 1 896 Kbps
    Encoded date                             : UTC 2016-04-15 01:38:45
    Tagged date                              : UTC 2016-04-15 01:38:45
    
    Video
    ID                                       : 1
    Format                                   : AVC
    Format/Info                              : Advanced Video Codec
    Format profile                           : [email protected]
    Format settings, CABAC                   : Yes
    Format settings, ReFrames                : 6 frames
    Codec ID                                 : avc1
    Codec ID/Info                            : Advanced Video Coding
    Duration                                 : 23mn 40s
    Bit rate                                 : 1 679 Kbps
    Maximum bit rate                         : 5 700 Kbps
    Width                                    : 1 280 pixels
    Height                                   : 720 pixels
    Display aspect ratio                     : 16:9
    Frame rate mode                          : Constant
    Frame rate                               : 23.976 fps
    Color space                              : YUV
    Chroma subsampling                       : 4:2:0
    Bit depth                                : 8 bits
    Scan type                                : Progressive
    Bits/(Pixel*Frame)                       : 0.076
    Stream size                              : 284 MiB (89%)
    Writing library                          : x264 core 142 r2431+42 c69a006 tMod [[email protected] X86_64]
    Encoding settings                        : cabac=1 / ref=6 / deblock=1:0:0 / analyse=0x3:0x133 / me=hex / subme=7 / psy=1 / fade_compensate=0.00 / psy_rd=1.00:0.00 / mixed_ref=1 / me_range=16 / chroma_me=1 / trellis=1 / 8x8dct=1 / cqm=0 / deadzone=21,11 / fast_pskip=1 / chroma_qp_offset=-2 / threads=12 / lookahead_threads=2 / sliced_threads=0 / nr=0 / decimate=0 / interlaced=0 / bluray_compat=0 / constrained_intra=0 / fgo=0 / bframes=4 / b_pyramid=2 / b_adapt=1 / b_bias=0 / direct=3 / weightb=1 / open_gop=0 / weightp=2 / keyint=250 / keyint_min=23 / scenecut=40 / intra_refresh=0 / rc_lookahead=40 / rc=crf / mbtree=1 / crf=18.0000 / qcomp=0.60 / qpmin=0:0:0 / qpmax=69:69:69 / qpstep=4 / vbv_maxrate=2560 / vbv_bufsize=5120 / crf_max=0.0 / nal_hrd=none / filler=0 / ip_ratio=1.40 / aq=4:0.80 / aq-sensitivity=10.00 / aq-factor=1.00:1.00:1.00 / aq2=0 / aq3=0
    Encoded date                             : UTC 2016-04-15 01:36:52
    Tagged date                              : UTC 2016-04-15 01:38:48
    Color range                              : Limited
    Color primaries                          : BT.709
    Transfer characteristics                 : BT.709
    Matrix coefficients                      : BT.709
    
    Audio
    ID                                       : 2
    Format                                   : AAC
    Format/Info                              : Advanced Audio Codec
    Format profile                           : LC
    Codec ID                                 : 40
    Duration                                 : 23mn 40s
    Bit rate mode                            : Variable
    Bit rate                                 : 213 Kbps
    Maximum bit rate                         : 253 Kbps
    Channel(s)                               : 2 channels
    Channel positions                        : Front: L R
    Sampling rate                            : 48.0 KHz
    Compression mode                         : Lossy
    Stream size                              : 36.1 MiB (11%)
    Encoded date                             : UTC 2016-04-15 01:38:46
    Tagged date                              : UTC 2016-04-15 01:38:48
    
    





    Geschützter Bereich - Bedanke dich beim Poster, um den Bereich sehen zu können
    Hier erfährst Du wie Du Dich bedanken kannst oder werde jetzt Premium Mitglied ab einer Spende von 5€ und erhalte sofortigen Zugriff auf den Downloadbereich!

    Share-Online kommt etwas später SrY


    [Links sind nur für registrierte und aktivierte Nutzer sichtbar. Klicke hier um dich zu registrieren.]
    Geändert von DjRayleigh (11. June 2016 um 05:22 Uhr) Grund: Edit E7

    [Links sind nur für registrierte und aktivierte Nutzer sichtbar. Klicke hier um dich zu registrieren.]
    Support über PN
    =
    AKTIV

  2. 7 Benutzer sagen Danke:

    Asuka Langley (25. April 2016),farmerjoe (19. April 2016),imnuan (11. June 2016),Piwi (18. April 2016),Smo (12. June 2016),tokyodrift (5. May 2016),Zap (2. May 2016)

  3. #2
    Erfahrener Otaku Avatar von DjRayleigh
    Registriert seit
    Jul 2015
    Beiträge
    195
    Punkte
    2.962
    Errungenschaften:
    1000 ErfahrungspunkteHyperaktivErste GruppeTomodachisSenpai

    AW: Bungou Stray Dogs (2016) [Laufend][Jap-Dub][Ger-Sub][720p][HDTV] - L-S

    Update : Folge 3-4 Viel Spaß

    [Links sind nur für registrierte und aktivierte Nutzer sichtbar. Klicke hier um dich zu registrieren.]
    Support über PN
    =
    AKTIV

  4. 1 Benutzer sagt Danke:

    Asuka Langley (4. May 2016)

  5. #3
    Erfahrener Otaku Avatar von DjRayleigh
    Registriert seit
    Jul 2015
    Beiträge
    195
    Punkte
    2.962
    Errungenschaften:
    1000 ErfahrungspunkteHyperaktivErste GruppeTomodachisSenpai

    AW: Bungou Stray Dogs (2016) [Laufend][Jap-Dub][Ger-Sub][720p][HDTV] - L-S

    Update: Folge 5-7

    [Links sind nur für registrierte und aktivierte Nutzer sichtbar. Klicke hier um dich zu registrieren.]
    Support über PN
    =
    AKTIV

Lesezeichen

Berechtigungen

  • Neue Themen erstellen: Nein
  • Themen beantworten: Nein
  • Anhänge hochladen: Nein
  • Beiträge bearbeiten: Nein
  •  

1 2 3 4 5 6 7 8 9 10 11 12 13 14 15 16 17 18 19 20 21 22 23 24 25 26 27 28 29 30 31 32 33 34 35 36 37 38 39 40 41 42 43 44 45 46 47 48 49 50 51 52 53 54 55 56 57 58 59 60 61 62 63 64 65 66 67 68 69 70 71 72 73 74 75 76 77 78 79 80 81 82 83 84 85 86 87 88 89 90 91 92 93 94 95 96 97 98 99 100 101 102 103 104 105 106 107 108 109 110 111 112 113 114 115 116 117 118 119 120 121 122 123 124 125 126 127 128 129 130 131 132 133 134 135 136 137 138 139 140 141 142 143 144 145 146 147 148 149 150 151 152 153 154 155 156 157 158