Ergebnis 1 bis 2 von 2

Thema: Canvas 2: Niji-iro no Sketch [Jap-Dub][Ger-Sub][420p][DVDRip]-NaSu

Dieser Thread wurde noch nicht bewertet. Bewerte ihn doch, wenn er dir gefällt!
  1. #1
    United we Stand Avatar von 00Ryuji00
    Registriert seit
    Oct 2012
    Beiträge
    3.902
    Punkte
    99.938
    Errungenschaften:
    TomodachisGang LeaderHikikomoriTagger Amateur50000 Erfahrungspunkte

    Canvas 2: Niji-iro no Sketch [Jap-Dub][Ger-Sub][420p][DVDRip]-NaSu


    Canvas 2: Niji-iro no Sketch
    Canvas2~虹色のスケッチ~
    Canvas 2: Rainbow Colored Sketch
    Canvas2: Niji Iro no Sketch






    Kurzbeschreibung:
    Zitat Zitat von AniSearch.com
    Der talentierte Maler Kamikura Hiroki, der das Malen aufgegeben hat, wird Kunstlehrer an der prestigeträchtigen Nadeshiko Academy. Dort trifft er auch seine Kindheitsfreundin Kiyoki Kiri wieder, die ihm einen unfruchtbaren Liebesantrag gemacht hatte. Auch Elis, seine Cousine, geht an diese Schule. Ihre Eltern starben bei einem Autounfall und aufgrund dieses Traumas hat sie starke Abneigungen gegenüber der Farbe rot. Wird Hiroki wieder ein erfolgreicher Maler? Wird Elis wieder die Farbe rot ausstehen können? Wer ergattert Hiroki, Kiri-san oder Elis-chan? All dies und noch mehr erfahren sie in den 24 Canvas Folgen.


    Spieldauer: 24min
    Genre: Romanze
    Nebengenres: Alltagsleben, Drama, Ecchi, Harem, Männlich, Romanze
    Jahr: 2005
    Sprache: Japanisch
    Untertitel: Deutsch
    Größe pro Folge: ~269 MiB
    Episodenanzahl: 24/24
    Format: MP4
    Auflösung: 420p (16:9)
    Videocodec: x264 (AVC)
    Audiocodec: AAC
    Releasegruppe: Naked-Subs
    Hoster: Share-Online, Uploaded


    MediaInfo
    Code:
    
    Format                                   : MPEG-4
    Format profile                           : Base Media / Version 2
    Codec ID                                 : mp42
    File size                                : 269 MiB
    Duration                                 : 23mn 40s
    Overall bit rate mode                    : Variable
    Overall bit rate                         : 1 591 Kbps
    Encoded date                             : UTC 2011-03-09 15:08:12
    Tagged date                              : UTC 2011-03-09 15:08:12
    
    Video
    ID                                       : 1
    Format                                   : AVC
    Format/Info                              : Advanced Video Codec
    Format profile                           : [email protected]
    Format settings, CABAC                   : Yes
    Format settings, ReFrames                : 3 frames
    Format settings, GOP                     : M=1, N=30
    Codec ID                                 : avc1
    Codec ID/Info                            : Advanced Video Coding
    Duration                                 : 23mn 40s
    Bit rate mode                            : Variable
    Bit rate                                 : 1 428 Kbps
    Maximum bit rate                         : 3 600 Kbps
    Width                                    : 848 pixels
    Height                                   : 420 pixels
    Display aspect ratio                     : 2.019
    Original display aspect ratio            : 16:9
    Frame rate mode                          : Constant
    Frame rate                               : 23.976 fps
    Standard                                 : PAL
    Color space                              : YUV
    Chroma subsampling                       : 4:2:0
    Bit depth                                : 8 bits
    Scan type                                : Progressive
    Bits/(Pixel*Frame)                       : 0.167
    Stream size                              : 242 MiB (90%)
    Language                                 : English
    Encoded date                             : UTC 2011-03-09 15:08:12
    Tagged date                              : UTC 2011-03-09 15:08:12
    Color primaries                          : BT.709
    Transfer characteristics                 : BT.709
    Matrix coefficients                      : BT.709
    
    Audio
    ID                                       : 2
    Format                                   : AAC
    Format/Info                              : Advanced Audio Codec
    Format profile                           : LC
    Codec ID                                 : 40
    Duration                                 : 23mn 40s
    Bit rate mode                            : Variable
    Bit rate                                 : 160 Kbps
    Maximum bit rate                         : 529 Kbps
    Channel count                            : 2 channels
    Channel positions                        : Front: L R
    Sampling rate                            : 44.1 KHz
    Compression mode                         : Lossy
    Stream size                              : 27.1 MiB (10%)
    Language                                 : English
    Encoded date                             : UTC 2011-03-09 15:08:12
    Tagged date                              : UTC 2011-03-09 15:08:12






    Geschützter Bereich - Bedanke dich beim Poster, um den Bereich sehen zu können
    Hier erfährst Du wie Du Dich bedanken kannst oder werde jetzt Premium Mitglied ab einer Spende von 5€ und erhalte sofortigen Zugriff auf den Downloadbereich!



    [Links sind nur für registrierte und aktivierte Nutzer sichtbar. Klicke hier um dich zu registrieren.]
    Geändert von so1k (12. October 2016 um 20:32 Uhr)
    !!!Alle Anliegen bezüglich Uploads werden nur mit direktem Threadlink zum Angebot bearbeitet!!!

    Re-Uploadanfragen nur per PN - Ihr könnt mir auch Listen schicken

    Re-Uploads erfolgen meist innerhalb 24h, kann aber auch bis zu 7 Tage dauern

    [Links sind nur für registrierte und aktivierte Nutzer sichtbar. Klicke hier um dich zu registrieren.] | [Links sind nur für registrierte und aktivierte Nutzer sichtbar. Klicke hier um dich zu registrieren.] | >[Links sind nur für registrierte und aktivierte Nutzer sichtbar. Klicke hier um dich zu registrieren.]<
    [Links sind nur für registrierte und aktivierte Nutzer sichtbar. Klicke hier um dich zu registrieren.]

  2. 5 Benutzer sagen Danke:

    Besen 48 (6. April 2016),Megamani (30. December 2015),midnighter (31. December 2015),prinzvegeta (14. February 2016),Ronae (4. January 2016)

  3. #2
    Treues Mitglied Avatar von Sairenji
    Registriert seit
    Aug 2013
    Beiträge
    299
    Punkte
    11.339
    Errungenschaften:
    TomodachisTagger Profi10000 ErfahrungspunkteHikikomori

    Canvas 2: Niji-iro no Sketch [Jap-Dub][Ger-Sub][DVDRiP][480p] - NaSu




    Der talentierte Maler Kamikura Hiroki, der das Malen aufgegeben hat, wird Kunstlehrer an der prestigeträchtigen Nadeshiko Academy. Dort trifft er auch seine Kindheitsfreundin Kiyoki Kiri wieder, die ihm einen unfruchtbaren Liebesantrag gemacht hatte. Auch Elis, seine Cousine, geht an diese Schule. Ihre Eltern starben bei einem Autounfall und aufgrund dieses Traumas hat sie starke Abneigungen gegenüber der Farbe rot.

    Titel: Canvas 2: Niji-iro no Sketch
    Genre: Alltagsleben, Drama, Ecchi, Harem, Romanze
    Laufzeit: ~ 24 Min. | Episoden: 24

    [Links sind nur für registrierte und aktivierte Nutzer sichtbar. Klicke hier um dich zu registrieren.]

    Canvas.2.Niji.iro.no.Sketch.German.Subbed.DVDRiP.x 264-NaSu | Größe: 6257 MB | Parts: 24

    Auflösung: 848x420 | Sprache: Japanisch | Untertitel: Deutsch

    Video: DVDRiP | Video-Bitrate: 1428 Kbps | Audio: MP3 | Format: .mkv / .mp4

    Hoster: UL.net , SO.biz , MC.net

    Geschützter Bereich - Bedanke dich beim Poster, um den Bereich sehen zu können
    Hier erfährst Du wie Du Dich bedanken kannst oder werde jetzt Premium Mitglied ab einer Spende von 5€ und erhalte sofortigen Zugriff auf den Downloadbereich!

    Inaktiver Uploader!

    Alle Re-Upload-Anfragen öffentlich im [Links sind nur für registrierte und aktivierte Nutzer sichtbar. Klicke hier um dich zu registrieren.] posten!

  4. 1 Benutzer sagt Danke:

    Ronae (4. January 2016)

Lesezeichen

Berechtigungen

  • Neue Themen erstellen: Nein
  • Themen beantworten: Nein
  • Anhänge hochladen: Nein
  • Beiträge bearbeiten: Nein
  •  

1 2 3 4 5 6 7 8 9 10 11 12 13 14 15 16 17 18 19 20 21 22 23 24 25 26 27 28 29 30 31 32 33 34 35 36 37 38 39 40 41 42 43 44 45 46 47 48 49 50 51 52 53 54 55 56 57 58 59 60 61 62 63 64 65 66 67 68 69 70 71 72 73 74 75 76 77 78 79 80 81 82 83 84 85 86 87 88 89 90 91 92 93 94 95 96 97 98 99 100 101 102 103 104 105 106 107 108 109 110 111 112 113 114 115 116 117 118 119 120 121 122 123 124 125 126 127 128 129 130 131 132 133 134 135 136 137 138 139 140 141 142 143 144 145 146 147 148 149 150 151 152 153 154 155 156 157 158