Ergebnis 1 bis 2 von 2

Thema: Card Captor Sakura [Jap-Dub][Ger-Sub][540p][BluRay]-MGS

Dieser Thread wurde noch nicht bewertet. Bewerte ihn doch, wenn er dir gefällt!
  1. #1
    United we Stand Avatar von 00Ryuji00
    Registriert seit
    Oct 2012
    Beiträge
    3.902
    Punkte
    100.092
    Errungenschaften:
    TomodachisGang LeaderHikikomoriTagger Amateur50000 Erfahrungspunkte

    Card Captor Sakura [Jap-Dub][Ger-Sub][540p][BluRay]-MGS


    Card Captor Sakura
    カードキャプターさくら
    Card Captors
    Cardcaptor Sakura
    Clow Master Sakura
    Clow Card Chapter
    ccs






    Kurzbeschreibung:
    Zitat Zitat von AniSearch.com
    In Card Captor Sakura geht es um Sakura Kinomoto, ein ganz normales zehnjähriges Mädchen. Ihr Leben ändert sich, als sie eines Tages in der Bibliothek ihres Vaters ein geheimnisvolles Buch mit dem Titel "The Clow" öffnet. In dem Buch befinden sich magische Karten, die den geöffneten Buchdeckel sofort dazu benutzen, sich in alle vier Windrichtungen aus dem Staub zu machen. Gleichzeitig erwacht auch Kerberos, der Wächter der Clow Cards, der gerade ein kleines Nickerchen von 30 Jahren gemacht hat. Die Karten, die mit ihren magischen Kräften imstande sind große Schäden anzurichten, sind weg und müssen wieder zurück ins Buch. Kerberos verleiht Sakura die Kraft, sich in einen Card Captor, eine Kartenfängerin, verwandeln zu können, um die Clow Cards wieder einzufangen. Und damit beginnt für Sakura das große Abenteuer, das mit vielen Überraschungen aufwarten wird… Bei ihrer Aufgabe wird sie auch von Tomoyo, ihrer besten Freundin, unterstützt, die jedes Abenteuer von Sakura mit der Kamera filmt und Sakura tolle Kostüme schneidert. Während ihres Abenteuers trifft sie außerdem auf Shaoran Li, einem Austauschschüler aus China und einen Nachfahre von Clow Reed, dem Erschaffer der Clow Cards, welcher ebenfalls auf der Suche nach den Clow Cards ist und somit für Sakura eine starke Konkurrenz darstellt.


    Spieldauer: 25min
    Genre: Actionkomödie
    Nebengenres: Abenteuer, Action, Alltagsleben, Fantasy, Komödie, Magical Girl, Romanze, Weiblich
    Jahr: 1998
    Sprache: Japanisch
    Untertitel: Deutsch
    Größe pro Folge: ~246 MiB
    Episodenanzahl: 36-70/70
    Format: MP4
    Auflösung: 540p (4:3)
    Videocodec: x264 (AVC)
    Audiocodec: AAC
    Releasegruppe: MGS
    Hoster: Share-Online, Uploaded

    Note: Folgen 01-35 sind lizenziert, findet ihr aber auch bei uns.
    [Links sind nur für registrierte und aktivierte Nutzer sichtbar. Klicke hier um dich zu registrieren.]


    MediaInfo
    Code:
    
    Format                                   : MPEG-4
    Format profile                           : Base Media
    Codec ID                                 : isom
    File size                                : 246 MiB
    Duration                                 : 25mn 2s
    Overall bit rate mode                    : Variable
    Overall bit rate                         : 1 373 Kbps
    Encoded date                             : UTC 2013-03-09 16:54:16
    Tagged date                              : UTC 2013-03-09 16:54:16
    
    Video
    ID                                       : 1
    Format                                   : AVC
    Format/Info                              : Advanced Video Codec
    Format profile                           : [email protected]
    Format settings, CABAC                   : Yes
    Format settings, ReFrames                : 3 frames
    Codec ID                                 : avc1
    Codec ID/Info                            : Advanced Video Coding
    Duration                                 : 25mn 2s
    Bit rate                                 : 1 242 Kbps
    Maximum bit rate                         : 4 092 Kbps
    Width                                    : 720 pixels
    Height                                   : 540 pixels
    Display aspect ratio                     : 4:3
    Frame rate mode                          : Constant
    Frame rate                               : 23.976 fps
    Color space                              : YUV
    Chroma subsampling                       : 4:2:0
    Bit depth                                : 8 bits
    Scan type                                : Progressive
    Bits/(Pixel*Frame)                       : 0.133
    Stream size                              : 222 MiB (90%)
    Writing library                          : x264 core 68 r1183M f21daff
    Encoding settings                        : cabac=1 / ref=3 / deblock=1:1:1 / analyse=0x3:0x113 / me=umh / subme=7 / psy_rd=1.0:0.0 / mixed_ref=1 / me_range=16 / chroma_me=1 / trellis=1 / 8x8dct=1 / cqm=0 / deadzone=21,11 / chroma_qp_offset=-4 / threads=6 / nr=0 / decimate=1 / mbaff=0 / bframes=3 / b_pyramid=1 / b_adapt=2 / b_bias=0 / direct=3 / wpredb=1 / keyint=250 / keyint_min=25 / scenecut=40 / rc=2pass / bitrate=1242 / ratetol=1.0 / qcomp=0.60 / qpmin=10 / qpmax=51 / qpstep=4 / cplxblur=20.0 / qblur=0.5 / ip_ratio=1.40 / pb_ratio=1.30 / aq=0
    Encoded date                             : UTC 2013-03-09 16:25:07
    Tagged date                              : UTC 2013-03-09 16:54:17
    
    Audio
    ID                                       : 2
    Format                                   : AAC
    Format/Info                              : Advanced Audio Codec
    Format profile                           : HE-AAC / LC
    Codec ID                                 : 40
    Duration                                 : 25mn 2s
    Bit rate mode                            : Variable
    Bit rate                                 : 128 Kbps
    Maximum bit rate                         : 147 Kbps
    Channel(s)                               : 2 channels
    Channel positions                        : Front: L R
    Sampling rate                            : 48.0 KHz / 24.0 KHz
    Compression mode                         : Lossy
    Stream size                              : 22.9 MiB (9%)
    Encoded date                             : UTC 2013-03-09 16:54:17
    Tagged date                              : UTC 2013-03-09 16:54:17
    
    





    Geschützter Bereich - Bedanke dich beim Poster, um den Bereich sehen zu können
    Hier erfährst Du wie Du Dich bedanken kannst oder werde jetzt Premium Mitglied ab einer Spende von 5€ und erhalte sofortigen Zugriff auf den Downloadbereich!


    [Links sind nur für registrierte und aktivierte Nutzer sichtbar. Klicke hier um dich zu registrieren.]
    !!!Alle Anliegen bezüglich Uploads werden nur mit direktem Threadlink zum Angebot bearbeitet!!!

    Re-Uploadanfragen nur per PN - Ihr könnt mir auch Listen schicken

    Re-Uploads folgen nach Anfrage meist am Wochenende

    [Links sind nur für registrierte und aktivierte Nutzer sichtbar. Klicke hier um dich zu registrieren.] | [Links sind nur für registrierte und aktivierte Nutzer sichtbar. Klicke hier um dich zu registrieren.] | >[Links sind nur für registrierte und aktivierte Nutzer sichtbar. Klicke hier um dich zu registrieren.]<
    [Links sind nur für registrierte und aktivierte Nutzer sichtbar. Klicke hier um dich zu registrieren.]

  2. 8 Benutzer sagen Danke:

    Alaric (6. January 2016),Aluaran (4. January 2016),bohne (9. January 2016),cooliero (2. April 2016),Hirs_E_Fruit (25. January 2016),midnighter (17. January 2016),Ronae (11. January 2016),Usagi91 (12. May 2016)

  3. #2
    United we Stand Avatar von 00Ryuji00
    Registriert seit
    Oct 2012
    Beiträge
    3.902
    Punkte
    100.092
    Errungenschaften:
    TomodachisGang LeaderHikikomoriTagger Amateur50000 Erfahrungspunkte

    AW: Card Captor Sakura [Jap-Dub][Ger-Sub][540p][BluRay]-MGS

    Udpate: Dateien auf Wunsch wieder online.
    !!!Alle Anliegen bezüglich Uploads werden nur mit direktem Threadlink zum Angebot bearbeitet!!!

    Re-Uploadanfragen nur per PN - Ihr könnt mir auch Listen schicken

    Re-Uploads folgen nach Anfrage meist am Wochenende

    [Links sind nur für registrierte und aktivierte Nutzer sichtbar. Klicke hier um dich zu registrieren.] | [Links sind nur für registrierte und aktivierte Nutzer sichtbar. Klicke hier um dich zu registrieren.] | >[Links sind nur für registrierte und aktivierte Nutzer sichtbar. Klicke hier um dich zu registrieren.]<
    [Links sind nur für registrierte und aktivierte Nutzer sichtbar. Klicke hier um dich zu registrieren.]

Lesezeichen

Berechtigungen

  • Neue Themen erstellen: Nein
  • Themen beantworten: Nein
  • Anhänge hochladen: Nein
  • Beiträge bearbeiten: Nein
  •  

1 2 3 4 5 6 7 8 9 10 11 12 13 14 15 16 17 18 19 20 21 22 23 24 25 26 27 28 29 30 31 32 33 34 35 36 37 38 39 40 41 42 43 44 45 46 47 48 49 50 51 52 53 54 55 56 57 58 59 60 61 62 63 64 65 66 67 68 69 70 71 72 73 74 75 76 77 78 79 80 81 82 83 84 85 86 87 88 89 90 91 92 93 94 95 96 97 98 99 100 101 102 103 104 105 106 107 108 109 110 111 112 113 114 115 116 117 118 119 120 121 122 123 124 125 126 127 128 129 130 131 132 133 134 135 136 137 138 139 140 141 142 143 144 145 146 147 148 149 150 151 152 153 154 155 156 157 158