Ergebnis 1 bis 1 von 1

Thema: Choujin Gakuen Gowcaizer - The Voltage Fighters [Jap-Dub][Ger-Sub][768p][DVDRip]-HRS

Dieser Thread wurde noch nicht bewertet. Bewerte ihn doch, wenn er dir gefällt!
  1. #1
    United we Stand Avatar von 00Ryuji00
    Registriert seit
    Oct 2012
    Beiträge
    3.902
    Punkte
    99.823
    Errungenschaften:
    TomodachisGang LeaderHikikomoriTagger Amateur50000 Erfahrungspunkte

    Choujin Gakuen Gowcaizer - The Voltage Fighters [Jap-Dub][Ger-Sub][768p][DVDRip]-HRS


    Choujin Gakuen Gowcaizer - The Voltage Fighters
    超人学園ゴウカイザー THE VOLTAGE FIGHTERS
    Voltage Fighter Gowcaizer






    Kurzbeschreibung:
    Zitat Zitat von AniSearch.com
    Im 21. Jahrhundert liegt der größte Teil von Tokyo in Schutt und Asche, verursacht durch ein vernichtendes Erdbeben. Der Grund der Katastrophe war Shizuru Ozaki - ein Mann, der sehr viel Macht besitzt und daraufhin größenwahnsinnig wird. Seit diesem Unglück kommt es zu großem Aufruhr im ganzen Land. Verschiedene Personen kommen in den Besitz von sogenannten "Caizer Stones", die ihnen übermenschliche Fähigkeiten verleihen. Nun ist Shizuru Ozaki kurz davor, wiederum seinen Verstand zu verlieren und dieses Mal droht, dass er die komplette Erde zerstören könnte. Können "Gowcaizer" und die restlichen Personen mit übernatürlichen Kräften Ozaki stoppen und so die drohende Vernichtung der gesamten Menschheit abwenden?


    Spieldauer: 30min
    Genre: Action
    Nebengenres: Action, Ecchi, Männlich, Sci-Fi
    Jahr: 1996
    Sprache: Japanisch
    Untertitel: Deutsch
    Größe pro Folge: ~559 MiB
    Episodenanzahl: 3/3
    Format: MKV
    Auflösung: 768p (4:3)
    Videocodec: x264 (AVC)
    Audiocodec: AC-3
    Releasegruppe: HRS & S-S
    Hoster: Share-Online, Uploaded


    MediaInfo
    Code:
    
    Format                                   : Matroska
    Format version                           : Version 4 / Version 2
    File size                                : 559 MiB
    Duration                                 : 46mn 27s
    Overall bit rate                         : 1 681 Kbps
    Encoded date                             : UTC 2015-01-19 12:59:04
    Writing application                      : mkvmerge v7.1.0 ('Good Love') 32bit built on Jul 27 2014 12:59:18
    Writing library                          : libebml v1.3.0 + libmatroska v1.4.1
    Attachements                             : Comfortaa-Regular.ttf / Contm__.ttf
    DURATION                                 : 00:46:04.500000000
    NUMBER_OF_FRAMES                         : 714
    NUMBER_OF_BYTES                          : 46312
    _STATISTICS_WRITING_APP                  : mkvmerge v7.1.0 ('Good Love') 32bit built on Jul 27 2014 12:59:18
    _STATISTICS_WRITING_DATE_UTC             : 2015-01-19 12:59:04
    _STATISTICS_TAGS                         : BPS DURATION NUMBER_OF_FRAMES NUMBER_OF_BYTES
    
    Video
    ID                                       : 1
    Format                                   : AVC
    Format/Info                              : Advanced Video Codec
    Format profile                           : [email protected]
    Format settings, CABAC                   : Yes
    Format settings, ReFrames                : 3 frames
    Codec ID                                 : V_MPEG4/ISO/AVC
    Duration                                 : 46mn 27s
    Bit rate                                 : 1 423 Kbps
    Width                                    : 1 024 pixels
    Height                                   : 768 pixels
    Display aspect ratio                     : 4:3
    Frame rate mode                          : Constant
    Frame rate                               : 23.976 fps
    Color space                              : YUV
    Chroma subsampling                       : 4:2:0
    Bit depth                                : 8 bits
    Scan type                                : Progressive
    Bits/(Pixel*Frame)                       : 0.075
    Stream size                              : 462 MiB (83%)
    Writing library                          : x264 core 68 r1195bm 5d75a9b
    Encoding settings                        : cabac=1 / ref=3 / deblock=1:2:2 / analyse=0x3:0x113 / me=umh / subme=6 / psy_rd=0.0:0.0 / mixed_ref=1 / me_range=16 / chroma_me=1 / trellis=0 / 8x8dct=1 / cqm=0 / deadzone=21,11 / chroma_qp_offset=0 / threads=6 / thread_queue=12 / nr=0 / decimate=1 / mbaff=0 / bframes=3 / b_pyramid=0 / b_adapt=2 / b_bias=0 / direct=1 / wpredb=1 / keyint=250 / keyint_min=25 / scenecut=40 / rc=2pass / bitrate=1423 / ratetol=1.0 / qcomp=0.60 / qpmin=10 / qpmax=51 / qpstep=4 / cplxblur=20.0 / qblur=0.5 / ip_ratio=1.40 / pb_ratio=1.30 / aq=1:1.00
    Default                                  : Yes
    Forced                                   : No
    
    Audio
    ID                                       : 2
    Format                                   : AC-3
    Format/Info                              : Audio Coding 3
    Mode extension                           : CM (complete main)
    Format settings, Endianness              : Big
    Codec ID                                 : A_AC3
    Duration                                 : 46mn 27s
    Bit rate mode                            : Constant
    Bit rate                                 : 256 Kbps
    Channel(s)                               : 2 channels
    Channel positions                        : Front: L R
    Sampling rate                            : 48.0 KHz
    Compression mode                         : Lossy
    Stream size                              : 85.1 MiB (15%)
    Default                                  : Yes
    Forced                                   : No
    
    Text
    ID                                       : 3
    Format                                   : ASS
    Codec ID                                 : S_TEXT/ASS
    Codec ID/Info                            : Advanced Sub Station Alpha
    Compression mode                         : Lossless
    Language                                 : German
    Default                                  : Yes
    Forced                                   : Yes
    
    






    Geschützter Bereich - Bedanke dich beim Poster, um den Bereich sehen zu können
    Hier erfährst Du wie Du Dich bedanken kannst oder werde jetzt Premium Mitglied ab einer Spende von 5€ und erhalte sofortigen Zugriff auf den Downloadbereich!



    [Links sind nur für registrierte und aktivierte Nutzer sichtbar. Klicke hier um dich zu registrieren.]
    Geändert von so1k (12. October 2016 um 20:13 Uhr)
    !!!Alle Anliegen bezüglich Uploads werden nur mit direktem Threadlink zum Angebot bearbeitet!!!

    Re-Uploadanfragen nur per PN - Ihr könnt mir auch Listen schicken

    Re-Uploads erfolgen meist innerhalb 24h, kann aber auch bis zu 7 Tage dauern

    [Links sind nur für registrierte und aktivierte Nutzer sichtbar. Klicke hier um dich zu registrieren.] | [Links sind nur für registrierte und aktivierte Nutzer sichtbar. Klicke hier um dich zu registrieren.] | >[Links sind nur für registrierte und aktivierte Nutzer sichtbar. Klicke hier um dich zu registrieren.]<
    [Links sind nur für registrierte und aktivierte Nutzer sichtbar. Klicke hier um dich zu registrieren.]

  2. 3 Benutzer sagen Danke:

    dreambird1973 (20. April 2016),midnighter (25. December 2015),prinzvegeta (5. January 2016)

Lesezeichen

Berechtigungen

  • Neue Themen erstellen: Nein
  • Themen beantworten: Nein
  • Anhänge hochladen: Nein
  • Beiträge bearbeiten: Nein
  •  

1 2 3 4 5 6 7 8 9 10 11 12 13 14 15 16 17 18 19 20 21 22 23 24 25 26 27 28 29 30 31 32 33 34 35 36 37 38 39 40 41 42 43 44 45 46 47 48 49 50 51 52 53 54 55 56 57 58 59 60 61 62 63 64 65 66 67 68 69 70 71 72 73 74 75 76 77 78 79 80 81 82 83 84 85 86 87 88 89 90 91 92 93 94 95 96 97 98 99 100 101 102 103 104 105 106 107 108 109 110 111 112 113 114 115 116 117 118 119 120 121 122 123 124 125 126 127 128 129 130 131 132 133 134 135 136 137 138 139 140 141 142 143 144 145 146 147 148 149 150 151 152 153 154 155 156 157 158