Ergebnis 1 bis 1 von 1

Thema: Chu Feng: Bee [Eingestellt][Jap-Dub][Ger-Sub][720p][WebRip] - Melonenbrot

Dieser Thread wurde noch nicht bewertet. Bewerte ihn doch, wenn er dir gefällt!
  1. #1
    Kami-sama Avatar von galudo
    Registriert seit
    Mar 2015
    Beiträge
    1.369
    Punkte
    25.903
    Errungenschaften:
    TomodachisTagger ProfiHyperaktivSenpaiGang Leader

    Chu Feng: Bee [Eingestellt][Jap-Dub][Ger-Sub][720p][WebRip] - Melonenbrot

    Chu Feng: Bee
    School Shock
    Hinabachi: BEE



    Kurzbeschreibung
    School Shock spielt im Jahre 2017, in dem eine neue Generation von Wettrüsten begonnen hat. Shun Hao Xuan ist ein normaler Schüler, der einfach nur leben will und keinerlei Ziele hat. Das verändert sich, als er eines Tages von Terroristen als Geisel genommen wird. Er ist der Erste der Geiseln, der getötet werden soll, aber wie durch ein Wunder wird er von einem hübschen Mädchen gerettet, das eine seltsame Kampfrüstung trägt. Das Mädchen, Liu Li, ist ein Vanguard, eine neue Art von Waffe. Sie erhält die Mission, Shun Hao Xuan zu beschützen...
    Format: MP4
    Sprache: Japanisch
    Untertitel: Deutsch
    Genre: Action, Ecchi, Mecha, Romanze, Scifi
    Größe: ~ 250 MB pro Folge | Gesamtgröße: 1,24 GB
    Dauer: ~ 15 Minuten
    Jahr: 2015
    Video: 720p
    Source: WebRip
    Subgroup / Releasegroup: Melonenbrot

    Hoster: Share-Online | Uploaded
    Passwort: siehe unten


    Datei-Info
    Spoiler
    Code:
    General
    Complete name                  : Chu Feng Bee - 01.mp4
    Format                         : MPEG-4
    Format profile                 : Base Media
    Codec ID                       : isom
    File size                      : 240 MiB
    Duration                       : 15mn 57s
    Overall bit rate mode          : Variable
    Overall bit rate               : 2 100 Kbps
    Writing application            : Lavf56.36.100
    
    Video
    ID                             : 1
    Format                         : AVC
    Format/Info                    : Advanced Video Codec
    Format profile                 : [email protected]
    Format settings, CABAC         : Yes
    Format settings, ReFrames      : 5 frames
    Codec ID                       : avc1
    Codec ID/Info                  : Advanced Video Coding
    Duration                       : 15mn 57s
    Bit rate                       : 2 000 Kbps
    Width                          : 1 280 pixels
    Height                         : 720 pixels
    Display aspect ratio           : 16:9
    Frame rate mode                : Constant
    Frame rate                     : 24.000 fps
    Color space                    : YUV
    Chroma subsampling             : 4:2:0
    Bit depth                      : 8 bits
    Scan type                      : Progressive
    Bits/(Pixel*Frame)             : 0.090
    Stream size                    : 227 MiB (95%)
    Writing library                : x264 core 146 r2538 121396c
    Encoding settings              : cabac=1 / ref=5 / deblock=1:0:0 / analyse=0x3:0x113 / me=umh / subme=8 / psy=1 / psy_rd=1.00:0.00 / mixed_ref=1 / me_range=8 / chroma_me=1 / trellis=1 / 8x8dct=1 / cqm=0 / deadzone=21,11 / fast_pskip=1 / chroma_qp_offset=-2 / threads=4 / lookahead_threads=1 / sliced_threads=0 / nr=0 / decimate=1 / interlaced=0 / bluray_compat=0 / constrained_intra=0 / bframes=3 / b_pyramid=2 / b_adapt=2 / b_bias=0 / direct=3 / weightb=1 / open_gop=0 / weightp=2 / keyint=240 / keyint_min=24 / scenecut=40 / intra_refresh=0 / rc_lookahead=50 / rc=2pass / mbtree=1 / bitrate=2000 / ratetol=1.0 / qcomp=0.60 / qpmin=0 / qpmax=69 / qpstep=4 / cplxblur=20.0 / qblur=0.5 / vbv_maxrate=3000 / vbv_bufsize=8000 / nal_hrd=none / filler=0 / ip_ratio=1.40 / aq=1:1.00
    
    Audio
    ID                             : 2
    Format                         : AAC
    Format/Info                    : Advanced Audio Codec
    Format profile                 : LC
    Codec ID                       : 40
    Duration                       : 15mn 57s
    Bit rate mode                  : Variable
    Bit rate                       : 103 Kbps
    Maximum bit rate               : 3 000 Kbps
    Channel(s)                     : 2 channels
    Channel positions              : Front: L R
    Sampling rate                  : 44.1 KHz
    Compression mode               : Lossy
    Stream size                    : 11.7 MiB (5%)


    Folgen 05 / 06 online
    Folgen einzeln ladbar



    || Download & Passwort ||


    Geschützter Bereich - Bedanke dich beim Poster, um den Bereich sehen zu können
    Hier erfährst Du wie Du Dich bedanken kannst oder werde jetzt Premium Mitglied ab einer Spende von 5€ und erhalte sofortigen Zugriff auf den Downloadbereich!

    Alternativversion(hardsubbed Subs durch schwarzen Balken überdeckt) gesubbed von einer anderen Subgruppe:
    [Links sind nur für registrierte und aktivierte Nutzer sichtbar. Klicke hier um dich zu registrieren.]
    Geändert von galudo (12. October 2016 um 18:38 Uhr) Grund: Eingestellt
    SUPPORT UND REUP ANFRAGEN NUR >> [Links sind nur für registrierte und aktivierte Nutzer sichtbar. Klicke hier um dich zu registrieren.] <<
    Bitte IMMER den Thread-Link mitschicken.

  2. 16 Benutzer sagen Danke:

    BlackOut84 (22. March 2016),carollatranny (21. May 2016),Dark Justice (17. March 2016),Drachengott (17. March 2016),Ghostraven (20. March 2016),hraver (18. March 2016),Icke (17. March 2016),Kradus (22. March 2016),Loki92 (21. March 2016),Mr.Shit (29. March 2016),nemo (17. May 2016),Suigetsu (17. March 2016),Tekk (18. March 2016),Tschu23 (17. March 2016),Windwusel (17. March 2016),YamiXGhost (18. March 2016)

Stichworte

Lesezeichen

Berechtigungen

  • Neue Themen erstellen: Nein
  • Themen beantworten: Nein
  • Anhänge hochladen: Nein
  • Beiträge bearbeiten: Nein
  •  

1 2 3 4 5 6 7 8 9 10 11 12 13 14 15 16 17 18 19 20 21 22 23 24 25 26 27 28 29 30 31 32 33 34 35 36 37 38 39 40 41 42 43 44 45 46 47 48 49 50 51 52 53 54 55 56 57 58 59 60 61 62 63 64 65 66 67 68 69 70 71 72 73 74 75 76 77 78 79 80 81 82 83 84 85 86 87 88 89 90 91 92 93 94 95 96 97 98 99 100 101 102 103 104 105 106 107 108 109 110 111 112 113 114 115 116 117 118 119 120 121 122 123 124 125 126 127 128 129 130 131 132 133 134 135 136 137 138 139 140 141 142 143 144 145 146 147 148 149 150 151 152 153 154 155 156 157 158