Ergebnis 1 bis 2 von 2

Thema: Chu Feng: Bee [Jap-Dub][Ger-Sub][720p][WebRip] - ACF

Dieser Thread wurde noch nicht bewertet. Bewerte ihn doch, wenn er dir gefällt!
  1. #1
    Kami-sama Avatar von galudo
    Registriert seit
    Mar 2015
    Beiträge
    1.371
    Punkte
    26.062
    Errungenschaften:
    TomodachisTagger ProfiHyperaktivSenpaiGang Leader

    Chu Feng: Bee [Jap-Dub][Ger-Sub][720p][WebRip] - ACF

    Chu Feng: Bee
    School Shock
    Hinabachi: BEE



    Kurzbeschreibung
    School Shock spielt im Jahre 2017, in dem eine neue Generation von Wettrüsten begonnen hat. Shun Hao Xuan ist ein normaler Schüler, der einfach nur leben will und keinerlei Ziele hat. Das verändert sich, als er eines Tages von Terroristen als Geisel genommen wird. Er ist der Erste der Geiseln, der getötet werden soll, aber wie durch ein Wunder wird er von einem hübschen Mädchen gerettet, das eine seltsame Kampfrüstung trägt. Das Mädchen, Liu Li, ist ein Vanguard, eine neue Art von Waffe. Sie erhält die Mission, Shun Hao Xuan zu beschützen...
    Format: MKV
    Sprache: Japanisch
    Untertitel: Deutsch
    Genre: Action, Ecchi, Mecha, Romanze, Scifi
    Größe: ~ 200 MB pro Folge | Gesamtgröße: 1,14 GB
    Dauer: ~ 15 Minuten
    Jahr: 2015
    Video: 720p
    Source: WebRip
    Subgroup / Releasegroup: Anime Crystal Fansubs

    Hinweis von mir: Im Gegensatz zu der Version von Melonenbrot ist der hardsubbed Subtitle durch einen schwarzen Balken überdeckt worden und dann der eigentlich Ger Sub darauf platziert worden.


    Hoster: Share-Online | Uploaded
    Passwort: siehe unten


    Datei-Info
    Spoiler
    Code:
    General
    Unique ID                      : 188243564103600542966638185248098797367 (0x8D9E644617BD6DD9860CE4B6BFEAC737)
    Complete name                  : [ACF] Chu Feng Bee - 01 [9AA3AB8B] v2.mkv
    Format                         : Matroska
    Format version                 : Version 4 / Version 2
    File size                      : 200 MiB
    Duration                       : 15mn 57s
    Overall bit rate               : 1 749 Kbps
    Encoded date                   : UTC 2016-03-28 09:11:21
    Writing application            : mkvmerge v8.7.0 ('All of the above') 64bit
    Writing library                : libebml v1.3.3 + libmatroska v1.4.4
    Attachements                   : Bengothb.ttf / Fondamento-Regular.ttf / Gilgamesh Bold.ttf / impact.ttf / metalstorm.ttf / arial.ttf / Averia-Regular.ttf / AveriaSerif-Light.ttf / BAARS_.TTF
    DURATION                       : 00:15:32.820000000
    NUMBER_OF_FRAMES               : 2781
    NUMBER_OF_BYTES                : 679046
    _STATISTICS_WRITING_APP        : mkvmerge v8.7.0 ('All of the above') 64bit
    _STATISTICS_WRITING_DATE_UTC   : 2016-03-28 09:11:21
    _STATISTICS_TAGS               : BPS DURATION NUMBER_OF_FRAMES NUMBER_OF_BYTES
    
    Video
    ID                             : 1
    Format                         : AVC
    Format/Info                    : Advanced Video Codec
    Format profile                 : [email protected]
    Format settings, CABAC         : Yes
    Format settings, ReFrames      : 1 frame
    Codec ID                       : V_MPEG4/ISO/AVC
    Duration                       : 15mn 57s
    Bit rate                       : 1 555 Kbps
    Width                          : 1 280 pixels
    Height                         : 720 pixels
    Display aspect ratio           : 16:9
    Frame rate mode                : Constant
    Frame rate                     : 25.000 fps
    Color space                    : YUV
    Chroma subsampling             : 4:2:0
    Bit depth                      : 8 bits
    Scan type                      : Progressive
    Bits/(Pixel*Frame)             : 0.067
    Stream size                    : 177 MiB (89%)
    Default                        : Yes
    Forced                         : No
    
    Audio
    ID                             : 2
    Format                         : MPEG Audio
    Format version                 : Version 1
    Format profile                 : Layer 3
    Mode                           : Joint stereo
    Codec ID                       : A_MPEG/L3
    Codec ID/Hint                  : MP3
    Duration                       : 15mn 57s
    Bit rate mode                  : Constant
    Bit rate                       : 160 Kbps
    Channel(s)                     : 2 channels
    Sampling rate                  : 44.1 KHz
    Compression mode               : Lossy
    Stream size                    : 18.3 MiB (9%)
    Default                        : Yes
    Forced                         : No
    
    Text
    ID                             : 3
    Format                         : ASS
    Codec ID                       : S_TEXT/ASS
    Codec ID/Info                  : Advanced Sub Station Alpha
    Compression mode               : Lossless
    Title                          : Anime Crystal Fansubs
    Language                       : German
    Default                        : Yes
    Forced                         : Yes


    Folgen 06 / 06 online
    Folgen einzeln ladbar



    || Download & Passwort ||


    Geschützter Bereich - Bedanke dich beim Poster, um den Bereich sehen zu können
    Hier erfährst Du wie Du Dich bedanken kannst oder werde jetzt Premium Mitglied ab einer Spende von 5€ und erhalte sofortigen Zugriff auf den Downloadbereich!

    Geändert von galudo (12. October 2016 um 18:21 Uhr)
    SUPPORT UND REUP ANFRAGEN NUR >> [Links sind nur für registrierte und aktivierte Nutzer sichtbar. Klicke hier um dich zu registrieren.] <<
    Bitte IMMER den Thread-Link mitschicken.

  2. 25 Benutzer sagen Danke:

    Aluaran (30. March 2016),Cande (29. March 2016),Dark Justice (29. March 2016),eraz (5. April 2016),fichtlwichtl (17. October 2016),heikobaer (25. August 2016),herrwefer (12. May 2016),hraver (29. March 2016),infinest (15. April 2016),johnny10 (3. April 2016),julian.schuh (31. March 2016),Kimab (21. October 2016),Kradus (30. March 2016),Lautrerbomber (8. April 2016),LFresh (26. August 2016),LoganKell (11. November 2016),most94 (19. November 2016),Mr.Shit (29. March 2016),nemo (17. May 2016),okzide (26. August 2016),Ravyn2805 (30. September 2016),Smasher25 (29. March 2016),SONNYxq (29. March 2016),Suigetsu (12. April 2016),tigerhai (30. July 2016)

  3. #2
    Kami-sama Avatar von galudo
    Registriert seit
    Mar 2015
    Beiträge
    1.371
    Punkte
    26.062
    Errungenschaften:
    TomodachisTagger ProfiHyperaktivSenpaiGang Leader

    AW: Chu Feng: Bee [Jap-Dub][Ger-Sub][720p][WebRip] - ACF

    Episode 06 Online, dabei ist die Episode 06 (finale Episode) nicht mit JapDub sondern mit China-Dub.
    SUPPORT UND REUP ANFRAGEN NUR >> [Links sind nur für registrierte und aktivierte Nutzer sichtbar. Klicke hier um dich zu registrieren.] <<
    Bitte IMMER den Thread-Link mitschicken.

Lesezeichen

Berechtigungen

  • Neue Themen erstellen: Nein
  • Themen beantworten: Nein
  • Anhänge hochladen: Nein
  • Beiträge bearbeiten: Nein
  •  

1 2 3 4 5 6 7 8 9 10 11 12 13 14 15 16 17 18 19 20 21 22 23 24 25 26 27 28 29 30 31 32 33 34 35 36 37 38 39 40 41 42 43 44 45 46 47 48 49 50 51 52 53 54 55 56 57 58 59 60 61 62 63 64 65 66 67 68 69 70 71 72 73 74 75 76 77 78 79 80 81 82 83 84 85 86 87 88 89 90 91 92 93 94 95 96 97 98 99 100 101 102 103 104 105 106 107 108 109 110 111 112 113 114 115 116 117 118 119 120 121 122 123 124 125 126 127 128 129 130 131 132 133 134 135 136 137 138 139 140 141 142 143 144 145 146 147 148 149 150 151 152 153 154 155 156 157 158