Ergebnis 1 bis 1 von 1

Thema: Chuunibyou demo Koi ga Shitai! Ren (S2) [Jap-Dub][Ger-Sub][720p][HDTV]

Dieser Thread wurde noch nicht bewertet. Bewerte ihn doch, wenn er dir gefällt!
  1. #1
    United we Stand Avatar von 00Ryuji00
    Registriert seit
    Oct 2012
    Beiträge
    3.902
    Punkte
    99.909
    Errungenschaften:
    TomodachisGang LeaderHikikomoriTagger Amateur50000 Erfahrungspunkte

    Chuunibyou demo Koi ga Shitai! Ren (S2) [Jap-Dub][Ger-Sub][720p][HDTV]

    Chuunibyou demo Koi ga Shitai! Ren
    中二病でも恋がしたい! 戀
    Chuunibyou demo Koi ga Shitai! 2
    Chuunibyou demo Koi ga Shitai! Season 2
    Love, Chunibyo & Other Delusions 2






    Kurzbeschreibung:
    Bei Chuunibyou demo Koi ga Shitai! Ren handelt es sich um die Fortsetzung des Animes Chuunibyou demo Koi ga Shitai!

    Wir tauchen wieder ein in die Welt der Oberstufenschüler Yuuta Togashi und Rikka Takanashi. Rikka ist noch immer Opfer des Chuunibyou-Syndroms und zieht die Zuschauer bei so mancher Gelegenheit mit in ihre Fantasiewelt. Seit der ersten Staffel hat sich jedoch so einiges getan. Yuuta und Rikka wohnen jetzt zusammen, da ihre Eltern wegen ihrer Arbeit umziehen mussten. Eigentlich soll Rikka sich eine eigene Wohnung suchen, aber da sie und Yuuta seit der ersten Staffel offiziell ein Paar sind, möchte sie sich nicht von Yuuta trennen. Somit beginnt das Zusammenleben der zwei Oberstufenschüler. Allerdings stehen ihnen einige Probleme bevor, denn ihre Eltern und ihre Freunde wissen nicht von dem Zusammenleben der beiden.

    Wie lange werden sie das Geheimnis ihres Zusammenlebens vor ihren Eltern, ihren Freunden und vor allem Rikkas Schwester verheimlichen können? Das und vieles mehr erfahrt ihr in Chuunibyou demo Koi ga Shitai! Ren!


    Sprache: Japanisch
    Untertitel: Deutsch
    Episodenanzahl: 12/12
    Format: .mp4
    Auflösung: 720p (16:9)
    Codec: x264
    Gruppe: Chinurarete-Subs
    Hoster: Share-Online ; Uploaded


    Datei Info:
    Spoiler

    Code:
    
    
    Format                                   : MPEG-4
    Format profile                           : Base Media
    Codec ID                                 : isom
    File size                                : 425 MiB
    Duration                                 : 23mn 39s
    Overall bit rate mode                    : Variable
    Overall bit rate                         : 2 513 Kbps
    Encoded date                             : UTC 2014-01-19 21:16:42
    Tagged date                              : UTC 2014-01-19 21:16:42
    Writing application                      : Yamb 2.1.0.0 [http://yamb.unite-video.com]
    
    Video
    ID                                       : 1
    Format                                   : AVC
    Format/Info                              : Advanced Video Codec
    Format profile                           : [email protected]
    Format settings, CABAC                   : Yes
    Format settings, ReFrames                : 4 frames
    Codec ID                                 : avc1
    Codec ID/Info                            : Advanced Video Coding
    Duration                                 : 23mn 39s
    Bit rate                                 : 2 256 Kbps
    Maximum bit rate                         : 10.5 Mbps
    Width                                    : 1 280 pixels
    Height                                   : 720 pixels
    Display aspect ratio                     : 16:9
    Frame rate mode                          : Constant
    Frame rate                               : 23.976 fps
    Color space                              : YUV
    Chroma subsampling                       : 4:2:0
    Bit depth                                : 8 bits
    Scan type                                : Progressive
    Bits/(Pixel*Frame)                       : 0.102
    Stream size                              : 382 MiB (90%)
    Writing library                          : x264 core 133 r2334 a3ac64b
    Encoding settings                        : cabac=1 / ref=3 / deblock=1:0:0 / analyse=0x3:0x113 / me=hex / subme=7 / psy=1 / psy_rd=1.00:0.00 / mixed_ref=1 / me_range=16 / chroma_me=1 / trellis=1 / 8x8dct=1 / cqm=0 / deadzone=21,11 / fast_pskip=1 / chroma_qp_offset=-2 / threads=12 / lookahead_threads=2 / sliced_threads=0 / nr=0 / decimate=1 / interlaced=0 / bluray_compat=0 / constrained_intra=0 / bframes=3 / b_pyramid=2 / b_adapt=1 / b_bias=0 / direct=1 / weightb=1 / open_gop=0 / weightp=2 / keyint=240 / keyint_min=23 / scenecut=40 / intra_refresh=0 / rc=crf / mbtree=0 / crf=20.0 / qcomp=0.60 / qpmin=0 / qpmax=69 / qpstep=4 / ip_ratio=1.40 / pb_ratio=1.30 / aq=1:1.20
    Encoded date                             : UTC 2014-01-20 21:10:31
    Tagged date                              : UTC 2014-01-19 21:16:45
    
    Audio
    ID                                       : 2
    Format                                   : AAC
    Format/Info                              : Advanced Audio Codec
    Format profile                           : LC
    Codec ID                                 : 40
    Duration                                 : 23mn 38s
    Bit rate mode                            : Variable
    Bit rate                                 : 252 Kbps
    Maximum bit rate                         : 260 Kbps
    Channel count                            : 2 channels
    Channel positions                        : Front: L R
    Sampling rate                            : 48.0 KHz
    Compression mode                         : Lossy
    Stream size                              : 42.7 MiB (10%)
    Encoded date                             : UTC 2014-01-19 21:16:43
    Tagged date                              : UTC 2014-01-19 21:16:45
    
    






    Geschützter Bereich - Bedanke dich beim Poster, um den Bereich sehen zu können
    Hier erfährst Du wie Du Dich bedanken kannst oder werde jetzt Premium Mitglied ab einer Spende von 5€ und erhalte sofortigen Zugriff auf den Downloadbereich!

    !!!Alle Anliegen bezüglich Uploads werden nur mit direktem Threadlink zum Angebot bearbeitet!!!

    Re-Uploadanfragen nur per PN - Ihr könnt mir auch Listen schicken

    Re-Uploads erfolgen meist innerhalb 24h, kann aber auch bis zu 7 Tage dauern

    [Links sind nur für registrierte und aktivierte Nutzer sichtbar. Klicke hier um dich zu registrieren.] | [Links sind nur für registrierte und aktivierte Nutzer sichtbar. Klicke hier um dich zu registrieren.] | >[Links sind nur für registrierte und aktivierte Nutzer sichtbar. Klicke hier um dich zu registrieren.]<
    [Links sind nur für registrierte und aktivierte Nutzer sichtbar. Klicke hier um dich zu registrieren.]

  2. 47 Benutzer sagen Danke:

    AKira_Hidaka (4. October 2015),animesoulx3 (19. January 2016),assa (7. December 2015),BlackIron (29. November 2015),Boff (29. December 2015),Bombur (3. October 2016),CarnivalCorpse (19. October 2015),CherryLarry (10. March 2016),Ciddy (31. July 2015),DarkTerminator (14. February 2016),Expert2506 (6. December 2015),Fard_AlvareZ (9. May 2016),Fox Faram (12. October 2015),Gatti1983 (9. September 2015),Genshirou (5. November 2015),hadis1000 (5. January 2016),herrntod (28. January 2016),huntercity (19. August 2015),Ingolf (4. October 2015),Jeycop (19. November 2015),Kox598 (1. January 2016),krasserGaul (20. November 2015),Kurzey (23. August 2015),MegaMacX (12. April 2016),midnighter (1. August 2015),Miriweth (8. November 2016),Morslord (28. November 2015),nickssystem (29. July 2015),Paraa (12. September 2015),Priim0 (5. September 2015),realmadridcf (5. December 2015),sabs0686 (7. September 2016),Sendo2k (26. February 2016),Senseless (13. January 2016),Sergej10 (14. December 2015),sharline (1. November 2015),Smasher25 (26. March 2016),Smitecrawler (22. November 2015),Talerius (25. September 2016),thegroudge (13. September 2015),tigerhai (3. October 2015),videoseven (16. August 2015),walda191 (25. August 2015),Windwusel (12. January 2016),xhellsingx (23. February 2016),ZER0XIII (30. October 2015),zoe#449 (28. March 2016)

Lesezeichen

Berechtigungen

  • Neue Themen erstellen: Nein
  • Themen beantworten: Nein
  • Anhänge hochladen: Nein
  • Beiträge bearbeiten: Nein
  •  

1 2 3 4 5 6 7 8 9 10 11 12 13 14 15 16 17 18 19 20 21 22 23 24 25 26 27 28 29 30 31 32 33 34 35 36 37 38 39 40 41 42 43 44 45 46 47 48 49 50 51 52 53 54 55 56 57 58 59 60 61 62 63 64 65 66 67 68 69 70 71 72 73 74 75 76 77 78 79 80 81 82 83 84 85 86 87 88 89 90 91 92 93 94 95 96 97 98 99 100 101 102 103 104 105 106 107 108 109 110 111 112 113 114 115 116 117 118 119 120 121 122 123 124 125 126 127 128 129 130 131 132 133 134 135 136 137 138 139 140 141 142 143 144 145 146 147 148 149 150 151 152 153 154 155 156 157 158