Ergebnis 1 bis 1 von 1

Thema: Code Breaker [Jap-Dub][Ger-Sub][480p-8Bit/10Bit][DVDRip] - SHFS

Dieser Thread wurde noch nicht bewertet. Bewerte ihn doch, wenn er dir gefällt!
  1. #1
    Uploader Avatar von Filbo11
    Registriert seit
    Jan 2015
    Beiträge
    931
    Punkte
    17.281
    Errungenschaften:
    TomodachisErste Gruppe1 Jahr registriertCreated Album picturesTagger First Class

    Code Breaker [Jap-Dub][Ger-Sub][480p-8Bit/10Bit][DVDRip] - SHFS

    Code:Breaker OVA
    CØDE:BREAKER OVA






    Format: mkv [8Bit/10Bit]
    Dauer: ca. 27 min
    Größe: ca. 239-311 MB [8Bit] / 240-300 MB [10Bit]
    Sprache: Japanisch
    Untertitel: Deutsch
    Group: [Shiroi-Fansubs]
    Hoster: Uploaded.net & Share-Online.biz
    kein PW


    Screenshots & MediaInfo

    8Bit
    [Links sind nur für registrierte und aktivierte Nutzer sichtbar. Klicke hier um dich zu registrieren.]

    Code:
    General
    
    Complete name               : [SHFS] Code Breaker - OVA 01 (DVD, 8bit, x264, AC3, 480p)[E24036E5].mkv
    Format                      : Matroska
    Format version              : Version 4 / Version 2
    File size                   : 291 MiB
    Duration                    : 27mn 23s
    Overall bit rate            : 1 487 Kbps
    Movie name                  : [SHFS] CØDE:BREAKER - OVA 01 (DVD, 8bit, x264, AC3, 480p) German Sub
    Encoded date                : UTC 2016-01-10 19:15:43
    Writing application         : mkvmerge v7.0.0 ('Where We Going') 32bit built on Jun  9 2014 15:08:34
    Writing library             : libebml v1.3.0 + libmatroska v1.4.1
    
    Video
    ID                          : 1
    Format                      : AVC
    Format/Info                 : Advanced Video Codec
    Format profile              : [email protected]
    Format settings, CABAC      : Yes
    Format settings, ReFrames   : 8 frames
    Codec ID                    : V_MPEG4/ISO/AVC
    Duration                    : 27mn 23s
    Bit rate                    : 1 037 Kbps
    Width                       : 720 pixels
    Height                      : 480 pixels
    Display aspect ratio        : 3:2
    Frame rate mode             : Constant
    Frame rate                  : 23.976 (24000/1001) fps
    Color space                 : YUV
    Chroma subsampling          : 4:2:0
    Bit depth                   : 8 bits
    Scan type                   : Progressive
    Bits/(Pixel*Frame)          : 0.125
    Stream size                 : 203 MiB (70%)
    Writing library             : x264 core 146 r2538kMod 121396c
    Encoding settings           : cabac=1 / ref=8 / deblock=1:-1:-2 / analyse=0x3:0x133 / me=umh / subme=10 / psy=1 / fade_compensate=0.00 / psy_rd=0.80:0.10 / mixed_ref=1 / me_range=32 / chroma_me=1 / trellis=2 / 8x8dct=1 / cqm=0 / deadzone=21,11 / fast_pskip=1 / chroma_qp_offset=-3 / threads=3 / lookahead_threads=1 / sliced_threads=0 / nr=0 / decimate=1 / interlaced=0 / bluray_compat=0 / constrained_intra=0 / fgo=0 / bframes=16 / b_pyramid=2 / b_adapt=2 / b_bias=0 / direct=3 / weightb=1 / open_gop=0 / weightp=2 / keyint=240 / keyint_min=23 / scenecut=40 / intra_refresh=0 / rc_lookahead=75 / rc=crf / mbtree=1 / crf=15.5000 / qcomp=0.60 / qpmin=0 / qpmax=69 / qpstep=4 / ip_ratio=1.40 / aq=2:0.80
    Language                    : Japanese
    Default                     : Yes
    Forced                      : No
    
    Audio
    ID                          : 2
    Format                      : AC-3
    Format/Info                 : Audio Coding 3
    Mode extension              : CM (complete main)
    Format settings, Endianness : Big
    Codec ID                    : A_AC3
    Duration                    : 27mn 23s
    Bit rate mode               : Constant
    Bit rate                    : 448 Kbps
    Channel(s)                  : 2 channels
    Channel positions           : Front: L R
    Sampling rate               : 48.0 KHz
    Frame rate                  : 31.250 fps (1536 spf)
    Compression mode            : Lossy
    Stream size                 : 87.8 MiB (30%)
    Title                       : Japanese
    Language                    : Japanese
    Default                     : Yes
    Forced                      : No
    
    Menu
    00:00:00.000                : :Opening
    00:01:30.090                : :Operation Schokolade
    00:09:35.575                : :Operation Marshmallow
    00:14:47.762                : :electric bird
    00:20:10.209                : :Ending
    00:21:45.304                : :Nyanmarus Theater
    00:25:45.461                : :Nyamaru-Ending


    10Bit
    [Links sind nur für registrierte und aktivierte Nutzer sichtbar. Klicke hier um dich zu registrieren.]

    Code:
    General
    
    Complete name               : [SHFS] Code Breaker OVA (DVD, 10bit, x264, AC3, 480p)\[SHFS] Code Breaker - OVA 01 (DVD, 10bit, x264, AC3, 480p)[A25EA9F7].mkv
    Format                      : Matroska
    Format version              : Version 4 / Version 2
    File size                   : 287 MiB
    Duration                    : 27mn 23s
    Overall bit rate            : 1 462 Kbps
    Movie name                  : [SHFS] CØDE:BREAKER - OVA 01 (DVD, 10bit, x264, AC3, 480p) German Sub
    Encoded date                : UTC 2016-01-11 05:45:02
    Writing application         : mkvmerge v7.0.0 ('Where We Going') 32bit built on Jun  9 2014 15:08:34
    Writing library             : libebml v1.3.0 + libmatroska v1.4.1
    Attachments                 : CALISTB.TTF / CALISTBI.TTF
    
    Video
    ID                          : 1
    Format                      : AVC
    Format/Info                 : Advanced Video Codec
    Format profile              : High [email protected]
    Format settings, CABAC      : Yes
    Format settings, ReFrames   : 16 frames
    Codec ID                    : V_MPEG4/ISO/AVC
    Duration                    : 27mn 23s
    Bit rate                    : 1 012 Kbps
    Width                       : 720 pixels
    Height                      : 480 pixels
    Display aspect ratio        : 3:2
    Frame rate mode             : Constant
    Frame rate                  : 23.976 (24000/1001) fps
    Color space                 : YUV
    Chroma subsampling          : 4:2:0
    Bit depth                   : 10 bits
    Scan type                   : Progressive
    Bits/(Pixel*Frame)          : 0.122
    Stream size                 : 198 MiB (69%)
    Writing library             : x264 core 148 r2638kMod 7599210
    Encoding settings           : cabac=1 / ref=16 / deblock=1:-1:-2 / analyse=0x3:0x133 / me=umh / subme=10 / psy=1 / fade_compensate=0.00 / psy_rd=0.80:0.10 / mixed_ref=1 / me_range=32 / chroma_me=1 / trellis=2 / 8x8dct=1 / cqm=0 / deadzone=21,11 / fast_pskip=0 / chroma_qp_offset=-3 / threads=3 / lookahead_threads=1 / sliced_threads=0 / nr=0 / decimate=1 / interlaced=0 / bluray_compat=0 / constrained_intra=0 / fgo=0 / bframes=16 / b_pyramid=2 / b_adapt=2 / b_bias=0 / direct=3 / weightb=1 / open_gop=0 / weightp=2 / keyint=240 / keyint_min=23 / scenecut=40 / intra_refresh=0 / rc_lookahead=75 / rc=crf / mbtree=1 / crf=15.0000 / qcomp=0.60 / qpmin=0 / qpmax=81 / qpstep=4 / ip_ratio=1.40 / aq=2:0.80
    Language                    : Japanese
    Default                     : Yes
    Forced                      : No
    
    Audio
    ID                          : 2
    Format                      : AC-3
    Format/Info                 : Audio Coding 3
    Mode extension              : CM (complete main)
    Format settings, Endianness : Big
    Codec ID                    : A_AC3
    Duration                    : 27mn 23s
    Bit rate mode               : Constant
    Bit rate                    : 448 Kbps
    Channel(s)                  : 2 channels
    Channel positions           : Front: L R
    Sampling rate               : 48.0 KHz
    Frame rate                  : 31.250 fps (1536 spf)
    Compression mode            : Lossy
    Stream size                 : 87.8 MiB (31%)
    Title                       : Japanese
    Language                    : Japanese
    Default                     : Yes
    Forced                      : No
    
    Text
    ID                          : 3
    Format                      : ASS
    Codec ID                    : S_TEXT/ASS
    Codec ID/Info               : Advanced Sub Station Alpha
    Duration                    : 25mn 37s
    Bit rate                    : 177 bps
    Count of elements           : 388
    Compression mode            : Lossless
    Stream size                 : 33.3 KiB (0%)
    Title                       : Deutsch
    Language                    : German
    Default                     : Yes
    Forced                      : No
    
    Menu
    00:00:00.000                : :Opening
    00:01:30.090                : :Operation Schokolade
    00:09:35.575                : :Operation Marshmallow
    00:14:47.762                : :electric bird
    00:20:10.209                : :Ending
    00:21:45.304                : :Nyanmarus Theater
    00:25:45.461                : :Nyamaru-Ending


    Alle Mirrors untereinander kompatibel
    Folgen einzeln ladbar
    Folge 3/3 online


    Download
    Geschützter Bereich - Bedanke dich beim Poster, um den Bereich sehen zu können
    Hier erfährst Du wie Du Dich bedanken kannst oder werde jetzt Premium Mitglied ab einer Spende von 5€ und erhalte sofortigen Zugriff auf den Downloadbereich!



    Geändert von Filbo11 (12. April 2016 um 09:49 Uhr)

    [Links sind nur für registrierte und aktivierte Nutzer sichtbar. Klicke hier um dich zu registrieren.]

    Ich wäre allen sehr dankbar, die mir gravierende Fehler in meinen Releases per PN melden

  2. 9 Benutzer sagen Danke:

    acer25 (14. February 2016),Aluaran (9. February 2016),Besen 48 (6. April 2016),frankra (10. February 2016),Kalchi (25. November 2016),manuel4193 (8. February 2016),midnighter (9. February 2016),old nick (8. February 2016),tigerhai (10. February 2016)

Stichworte

Lesezeichen

Berechtigungen

  • Neue Themen erstellen: Nein
  • Themen beantworten: Nein
  • Anhänge hochladen: Nein
  • Beiträge bearbeiten: Nein
  •  

1 2 3 4 5 6 7 8 9 10 11 12 13 14 15 16 17 18 19 20 21 22 23 24 25 26 27 28 29 30 31 32 33 34 35 36 37 38 39 40 41 42 43 44 45 46 47 48 49 50 51 52 53 54 55 56 57 58 59 60 61 62 63 64 65 66 67 68 69 70 71 72 73 74 75 76 77 78 79 80 81 82 83 84 85 86 87 88 89 90 91 92 93 94 95 96 97 98 99 100 101 102 103 104 105 106 107 108 109 110 111 112 113 114 115 116 117 118 119 120 121 122 123 124 125 126 127 128 129 130 131 132 133 134 135 136 137 138 139 140 141 142 143 144 145 146 147 148 149 150 151 152 153 154 155 156 157 158