Ergebnis 1 bis 9 von 9

Thema: Dance with Devils [Jap-Dub][Ger-Sub][720p][HDTV] - ASS

Dieser Thread wurde noch nicht bewertet. Bewerte ihn doch, wenn er dir gefällt!
  1. #1
    Kami-sama Avatar von galudo
    Registriert seit
    Mar 2015
    Beiträge
    1.371
    Punkte
    26.053
    Errungenschaften:
    TomodachisTagger ProfiHyperaktivSenpaiGang Leader

    Dance with Devils [Jap-Dub][Ger-Sub][720p][HDTV] - ASS

    Dance with Devils
    ダンス・ウィズ・デビルス
    DwD



    Kurzbeschreibung
    "Dass ich erkenne, was die Welt im Innersten zusammenhält, schau' alle Wirkenskraft und Samen, und tu' nicht mehr in Worten kramen."

    Ritsuka Tachibana ist im zweiten Jahr auf der Shikou Schule. Ihren Alltag verbringt sie friedlich mit ihrer Mutter Maria. Auch ihr Schulleben ist alles Andere als interessant. Doch dies ändert sich, als sie die Teufel kennengelernt hat ... Teufel, von denen sie geliebt und bewundert wird ...
    Format: MP4
    Sprache: Japanisch
    Untertitel: Deutsch
    Genre: Drama, Harem, Mystery, Romanze, Vampire
    Größe: ~ 300 MB pro Folge | Gesamtgröße: 3,50 GB
    Dauer: ~ 24 Minuten
    Jahr: 2015
    Video: 720p
    Source: HDTV
    Subgroup / Releasegroup: AoiSora-Subs

    Hoster: Share-Online | Uploaded
    Passwort: siehe unten


    Datei-Info
    Spoiler
    Code:
    General
    Complete name                  : Dance with Devils - 01 - Verdorbenheit und der verbotene Tanz.mp4
    Format                         : MPEG-4
    Format profile                 : Base Media
    Codec ID                       : isom
    File size                      : 307 MiB
    Duration                       : 23mn 59s
    Overall bit rate mode          : Variable
    Overall bit rate               : 1 790 Kbps
    Encoded date                   : UTC 2015-10-16 10:37:39
    Tagged date                    : UTC 2015-10-16 10:37:39
    Writing application            : Yamb 2.1.0.0 [http://yamb.unite-video.com]
    
    Video
    ID                             : 1
    Format                         : AVC
    Format/Info                    : Advanced Video Codec
    Format profile                 : [email protected]
    Format settings, CABAC         : Yes
    Format settings, ReFrames      : 9 frames
    Codec ID                       : avc1
    Codec ID/Info                  : Advanced Video Coding
    Duration                       : 23mn 59s
    Bit rate                       : 1 637 Kbps
    Maximum bit rate               : 5 696 Kbps
    Width                          : 1 280 pixels
    Height                         : 720 pixels
    Display aspect ratio           : 16:9
    Frame rate mode                : Constant
    Frame rate                     : 23.976 fps
    Color space                    : YUV
    Chroma subsampling             : 4:2:0
    Bit depth                      : 8 bits
    Scan type                      : Progressive
    Bits/(Pixel*Frame)             : 0.074
    Stream size                    : 281 MiB (91%)
    Writing library                : x264 core 142 r2409+42 04be48a tMod [[email protected] X86_64]
    Encoding settings              : cabac=1 / ref=9 / deblock=1:0:0 / analyse=0x3:0x133 / me=umh / subme=9 / psy=1 / fade_compensate=0.00 / psy_rd=1.00:0.00 / mixed_ref=1 / me_range=32 / chroma_me=1 / trellis=2 / 8x8dct=1 / cqm=0 / deadzone=21,11 / fast_pskip=0 / chroma_qp_offset=-2 / threads=3 / lookahead_threads=1 / sliced_threads=0 / nr=0 / decimate=0 / interlaced=0 / bluray_compat=0 / constrained_intra=0 / fgo=0 / bframes=9 / b_pyramid=2 / b_adapt=2 / b_bias=0 / direct=3 / weightb=1 / open_gop=0 / weightp=2 / keyint=250 / keyint_min=23 / scenecut=40 / intra_refresh=0 / rc_lookahead=80 / rc=crf / mbtree=1 / crf=17.0000 / qcomp=0.80 / qpmin=0:0:0 / qpmax=69:69:69 / qpstep=4 / vbv_maxrate=2560 / vbv_bufsize=5120 / crf_max=0.0 / nal_hrd=none / filler=0 / ip_ratio=1.40 / aq=4:0.70 / aq-sensitivity=10.00 / aq-factor=1.00:1.00:1.00 / aq2=0 / aq3=0
    Encoded date                   : UTC 2015-10-17 06:19:33
    Tagged date                    : UTC 2015-10-16 10:38:17
    Color range                    : Limited
    Color primaries                : BT.709
    Transfer characteristics       : BT.709
    Matrix coefficients            : BT.709
    
    Audio
    ID                             : 2
    Format                         : AAC
    Format/Info                    : Advanced Audio Codec
    Format profile                 : LC
    Codec ID                       : 40
    Duration                       : 23mn 59s
    Bit rate mode                  : Variable
    Bit rate                       : 150 Kbps
    Maximum bit rate               : 227 Kbps
    Channel(s)                     : 2 channels
    Channel positions              : Front: L R
    Sampling rate                  : 44.1 KHz
    Compression mode               : Lossy
    Stream size                    : 25.7 MiB (8%)
    Encoded date                   : UTC 2015-10-16 10:37:41
    Tagged date                    : UTC 2015-10-16 10:38:17


    Folgen 12 / 12 online
    Folgen einzeln ladbar



    || Download & Passwort ||


    Geschützter Bereich - Bedanke dich beim Poster, um den Bereich sehen zu können
    Hier erfährst Du wie Du Dich bedanken kannst oder werde jetzt Premium Mitglied ab einer Spende von 5€ und erhalte sofortigen Zugriff auf den Downloadbereich!

    Geändert von galudo (12. October 2016 um 18:41 Uhr) Grund: Folgenupdate
    SUPPORT UND REUP ANFRAGEN NUR >> [Links sind nur für registrierte und aktivierte Nutzer sichtbar. Klicke hier um dich zu registrieren.] <<
    Bitte IMMER den Thread-Link mitschicken.

  2. 18 Benutzer sagen Danke:

    AKira_Hidaka (10. January 2016),Akulti (4. February 2016),Anoand (21. January 2016),Conopas (20. December 2015),cooliero (6. December 2016),doN1337 (28. December 2015),hnnnn (2. February 2016),Horrorholgi (19. March 2016),KeXiuS (31. January 2016),Magikarp (17. October 2016),midnighter (26. October 2015),mik_y (10. January 2016),noizmaker (7. January 2016),prinzvegeta (5. February 2016),Shirayah (22. March 2016),Taiho (3. May 2016),tigerhai (20. February 2016),tokyodrift (18. October 2015)

  3. #2
    Kami-sama Avatar von galudo
    Registriert seit
    Mar 2015
    Beiträge
    1.371
    Punkte
    26.053
    Errungenschaften:
    TomodachisTagger ProfiHyperaktivSenpaiGang Leader

    AW: Dance with Devils [Jap-Dub][Ger-Sub][720p][HDTV] - ASS

    Episode 2 Online
    SUPPORT UND REUP ANFRAGEN NUR >> [Links sind nur für registrierte und aktivierte Nutzer sichtbar. Klicke hier um dich zu registrieren.] <<
    Bitte IMMER den Thread-Link mitschicken.

  4. #3
    Kami-sama Avatar von galudo
    Registriert seit
    Mar 2015
    Beiträge
    1.371
    Punkte
    26.053
    Errungenschaften:
    TomodachisTagger ProfiHyperaktivSenpaiGang Leader

    AW: Dance with Devils [Jap-Dub][Ger-Sub][720p][HDTV] - ASS

    Episode 3 Online
    SUPPORT UND REUP ANFRAGEN NUR >> [Links sind nur für registrierte und aktivierte Nutzer sichtbar. Klicke hier um dich zu registrieren.] <<
    Bitte IMMER den Thread-Link mitschicken.

  5. #4
    Kami-sama Avatar von galudo
    Registriert seit
    Mar 2015
    Beiträge
    1.371
    Punkte
    26.053
    Errungenschaften:
    TomodachisTagger ProfiHyperaktivSenpaiGang Leader

    AW: Dance with Devils [Jap-Dub][Ger-Sub][720p][HDTV] - ASS

    Episode 4 Online
    SUPPORT UND REUP ANFRAGEN NUR >> [Links sind nur für registrierte und aktivierte Nutzer sichtbar. Klicke hier um dich zu registrieren.] <<
    Bitte IMMER den Thread-Link mitschicken.

  6. #5
    Kami-sama Avatar von galudo
    Registriert seit
    Mar 2015
    Beiträge
    1.371
    Punkte
    26.053
    Errungenschaften:
    TomodachisTagger ProfiHyperaktivSenpaiGang Leader

    AW: Dance with Devils [Jap-Dub][Ger-Sub][720p][HDTV] - ASS

    Episode 5 & 6 Online
    SUPPORT UND REUP ANFRAGEN NUR >> [Links sind nur für registrierte und aktivierte Nutzer sichtbar. Klicke hier um dich zu registrieren.] <<
    Bitte IMMER den Thread-Link mitschicken.

  7. #6
    Kami-sama Avatar von galudo
    Registriert seit
    Mar 2015
    Beiträge
    1.371
    Punkte
    26.053
    Errungenschaften:
    TomodachisTagger ProfiHyperaktivSenpaiGang Leader

    AW: Dance with Devils [Jap-Dub][Ger-Sub][720p][HDTV] - ASS

    Episode 7 Online
    SUPPORT UND REUP ANFRAGEN NUR >> [Links sind nur für registrierte und aktivierte Nutzer sichtbar. Klicke hier um dich zu registrieren.] <<
    Bitte IMMER den Thread-Link mitschicken.

  8. #7
    Kami-sama Avatar von galudo
    Registriert seit
    Mar 2015
    Beiträge
    1.371
    Punkte
    26.053
    Errungenschaften:
    TomodachisTagger ProfiHyperaktivSenpaiGang Leader

    AW: Dance with Devils [Jap-Dub][Ger-Sub][720p][HDTV] - ASS

    Episode 8 & 9 Online
    SUPPORT UND REUP ANFRAGEN NUR >> [Links sind nur für registrierte und aktivierte Nutzer sichtbar. Klicke hier um dich zu registrieren.] <<
    Bitte IMMER den Thread-Link mitschicken.

  9. #8
    Kami-sama Avatar von galudo
    Registriert seit
    Mar 2015
    Beiträge
    1.371
    Punkte
    26.053
    Errungenschaften:
    TomodachisTagger ProfiHyperaktivSenpaiGang Leader

    AW: Dance with Devils [Jap-Dub][Ger-Sub][720p][HDTV] - ASS

    Episode 10&11 Online
    SUPPORT UND REUP ANFRAGEN NUR >> [Links sind nur für registrierte und aktivierte Nutzer sichtbar. Klicke hier um dich zu registrieren.] <<
    Bitte IMMER den Thread-Link mitschicken.

  10. #9
    Kami-sama Avatar von galudo
    Registriert seit
    Mar 2015
    Beiträge
    1.371
    Punkte
    26.053
    Errungenschaften:
    TomodachisTagger ProfiHyperaktivSenpaiGang Leader

    AW: Dance with Devils [Jap-Dub][Ger-Sub][720p][HDTV] - ASS

    Episode 12 Online und somit komplett
    SUPPORT UND REUP ANFRAGEN NUR >> [Links sind nur für registrierte und aktivierte Nutzer sichtbar. Klicke hier um dich zu registrieren.] <<
    Bitte IMMER den Thread-Link mitschicken.

Stichworte

Lesezeichen

Berechtigungen

  • Neue Themen erstellen: Nein
  • Themen beantworten: Nein
  • Anhänge hochladen: Nein
  • Beiträge bearbeiten: Nein
  •  

1 2 3 4 5 6 7 8 9 10 11 12 13 14 15 16 17 18 19 20 21 22 23 24 25 26 27 28 29 30 31 32 33 34 35 36 37 38 39 40 41 42 43 44 45 46 47 48 49 50 51 52 53 54 55 56 57 58 59 60 61 62 63 64 65 66 67 68 69 70 71 72 73 74 75 76 77 78 79 80 81 82 83 84 85 86 87 88 89 90 91 92 93 94 95 96 97 98 99 100 101 102 103 104 105 106 107 108 109 110 111 112 113 114 115 116 117 118 119 120 121 122 123 124 125 126 127 128 129 130 131 132 133 134 135 136 137 138 139 140 141 142 143 144 145 146 147 148 149 150 151 152 153 154 155 156 157 158