Ergebnis 1 bis 1 von 1

Thema: Dantalian no Shoka: Ibarahime [JapDub][GerSub][DVDRip]

Dieser Thread wurde noch nicht bewertet. Bewerte ihn doch, wenn er dir gefällt!
  1. #1
    Kami-sama Avatar von galudo
    Registriert seit
    Mar 2015
    Beiträge
    1.369
    Punkte
    25.903
    Errungenschaften:
    TomodachisTagger ProfiHyperaktivSenpaiGang Leader

    Dantalian no Shoka: Ibarahime [JapDub][GerSub][DVDRip]

    Dantalian no Shoka: Ibarahime
    The Mystic Archives of Dantalian: Ibarahime



    Kurzbeschreibung
    Mitten in der Nacht brennt die Villa von Sergeant Callavos nieder, der Hausherr stirbt in den Flammen. Dieses seltsame Ereignis ruft sofort Huey und Dalian auf den Plan. Verdächtigt wird seit dem tragischen Feuer eine Frau namens Florence, die an der Villa gesichtet worden sein soll. Von der jungen Thalia erfahren die beiden, dass Florence als Mörderin nicht in Betracht kommen kann, weil sie ihr Anwesen so gut wie nie verlässt. Als Huey und Dalian auf eigene Faust losziehen, finden sie schnell heraus, dass hier ein Phantombuch seine Finger im Spiel hat.
    Format: MKV
    Sprache: Japanisch
    Untertitel: Deutsch
    Genre: Drama, Fantasy, Magie, Mystery, Romanze
    Größe: ~ 431 MB
    Dauer: ~ 24 Minuten
    Jahr: 2012
    Video: 1024x576p
    Source: DVDRip
    Subgroup / Releasegroup: NanaOne & Yamayurikai

    Hoster: Share-Online | Uploaded
    Passwort: siehe unten


    Datei-Info
    Spoiler
    Code:
    General
    Format                         : Matroska
    Format version                 : Version 2
    File size                      : 431 MiB
    Duration                       : 24mn 6s
    Overall bit rate mode          : Variable
    Overall bit rate               : 2 500 Kbps
    Encoded date                   : UTC 2012-10-08 22:16:31
    Writing application            : mkvmerge v5.1.0 ('And so it goes') built on Feb  1 2012 11:32:58
    Writing library                : libebml v1.2.2 + libmatroska v1.3.0
    Attachements                   : AppleGaramond.ttf / CLRN.TTF
    
    Video
    ID                             : 1
    Format                         : AVC
    Format/Info                    : Advanced Video Codec
    Format profile                 : High [email protected]
    Format settings, CABAC         : Yes
    Format settings, ReFrames      : 16 frames
    Muxing mode                    : Header stripping
    Codec ID                       : V_MPEG4/ISO/AVC
    Duration                       : 24mn 6s
    Bit rate                       : 2 323 Kbps
    Width                          : 1 024 pixels
    Height                         : 576 pixels
    Display aspect ratio           : 16:9
    Frame rate mode                : Constant
    Frame rate                     : 23.976 fps
    Color space                    : YUV
    Chroma subsampling             : 4:2:0
    Bit depth                      : 10 bits
    Scan type                      : Progressive
    Bits/(Pixel*Frame)             : 0.164
    Stream size                    : 400 MiB (93%)
    Title                          : [NanaOne & Yamayurikai] Dantalian no Shoka: Ibarahime
    Writing library                : x264 core 128 r2216 198a7ea
    Encoding settings              : cabac=1 / ref=16 / deblock=1:-1:-1 / analyse=0x3:0x133 / me=umh / subme=10 / psy=1 / psy_rd=0.80:0.25 / mixed_ref=1 / me_range=32 / chroma_me=1 / trellis=2 / 8x8dct=1 / cqm=0 / deadzone=21,11 / fast_pskip=1 / chroma_qp_offset=-4 / threads=6 / lookahead_threads=1 / sliced_threads=0 / nr=0 / decimate=0 / interlaced=0 / bluray_compat=0 / constrained_intra=0 / bframes=16 / b_pyramid=2 / b_adapt=2 / b_bias=0 / direct=3 / weightb=1 / open_gop=0 / weightp=2 / keyint=230 / keyint_min=23 / scenecut=40 / intra_refresh=0 / rc_lookahead=80 / rc=crf / mbtree=1 / crf=17.0 / qcomp=0.60 / qpmin=0 / qpmax=81 / qpstep=4 / ip_ratio=1.40 / aq=1:1.30
    Language                       : German
    Default                        : Yes
    Forced                         : No
    
    Audio
    ID                             : 2
    Format                         : Vorbis
    Format settings, Floor         : 1
    Codec ID                       : A_VORBIS
    Duration                       : 24mn 6s
    Bit rate mode                  : Variable
    Bit rate                       : 128 Kbps
    Channel(s)                     : 2 channels
    Sampling rate                  : 48.0 KHz
    Compression mode               : Lossy
    Stream size                    : 22.1 MiB (5%)
    Title                          : Japanisch
    Writing library                : aoTuV 20110424 (UTC 2011-04-24)
    Language                       : Japanese
    Default                        : Yes
    Forced                         : No
    
    Text
    ID                             : 3
    Format                         : ASS
    Codec ID                       : S_TEXT/ASS
    Codec ID/Info                  : Advanced Sub Station Alpha
    Compression mode               : Lossless
    Title                          : Deutsch (NanaOne & Yamayurikai)
    Language                       : German
    Default                        : Yes
    Forced                         : No
    
    Menu
    00:00:00.000                   : de:Prolog
    00:00:53.095                   : de:Opening
    00:02:23.685                   : de:(1) Appendix: Heckenrose
    00:10:43.643                   : de:(2) Appendix: Heckenrose
    00:22:35.646                   : de:Ending
    


    01 / 01 online


    || Download & Passwort ||
    Geschützter Bereich - Bedanke dich beim Poster, um den Bereich sehen zu können
    Hier erfährst Du wie Du Dich bedanken kannst oder werde jetzt Premium Mitglied ab einer Spende von 5€ und erhalte sofortigen Zugriff auf den Downloadbereich!

    Hier geht's zur Serie:
    [Links sind nur für registrierte und aktivierte Nutzer sichtbar. Klicke hier um dich zu registrieren.]
    Geändert von galudo (21. April 2016 um 18:23 Uhr)
    SUPPORT UND REUP ANFRAGEN NUR >> [Links sind nur für registrierte und aktivierte Nutzer sichtbar. Klicke hier um dich zu registrieren.] <<
    Bitte IMMER den Thread-Link mitschicken.

  2. 12 Benutzer sagen Danke:

    BlackPhoenix (30. June 2015),Bloody Shion (8. April 2016),Bloodywaffe (27. January 2016),Cande (14. June 2015),Melijal (30. June 2015),midnighter (15. June 2015),prinzvegeta (4. July 2015),Riyadoris (24. October 2015),sharline (25. July 2015),Smasher25 (27. October 2015),VatosLocos (14. September 2015),ZomKne (14. August 2015)

Stichworte

Lesezeichen

Berechtigungen

  • Neue Themen erstellen: Nein
  • Themen beantworten: Nein
  • Anhänge hochladen: Nein
  • Beiträge bearbeiten: Nein
  •  

1 2 3 4 5 6 7 8 9 10 11 12 13 14 15 16 17 18 19 20 21 22 23 24 25 26 27 28 29 30 31 32 33 34 35 36 37 38 39 40 41 42 43 44 45 46 47 48 49 50 51 52 53 54 55 56 57 58 59 60 61 62 63 64 65 66 67 68 69 70 71 72 73 74 75 76 77 78 79 80 81 82 83 84 85 86 87 88 89 90 91 92 93 94 95 96 97 98 99 100 101 102 103 104 105 106 107 108 109 110 111 112 113 114 115 116 117 118 119 120 121 122 123 124 125 126 127 128 129 130 131 132 133 134 135 136 137 138 139 140 141 142 143 144 145 146 147 148 149 150 151 152 153 154 155 156 157 158