Ergebnis 1 bis 1 von 1

Thema: Dantalian no Shoka [Jap-Dub][Ger-Sub][720p][HDTV]-Morai

Dieser Thread wurde noch nicht bewertet. Bewerte ihn doch, wenn er dir gefällt!
  1. #1
    United we Stand Avatar von 00Ryuji00
    Registriert seit
    Oct 2012
    Beiträge
    3.896
    Punkte
    99.519
    Errungenschaften:
    TomodachisGang LeaderHikikomoriTagger Amateur50000 Erfahrungspunkte

    Dantalian no Shoka [Jap-Dub][Ger-Sub][720p][HDTV]-Morai


    Dantalian no Shoka
    ダンタリアンの書架
    The Mystic Archives of Dantalian
    Bibliotheca Mystica de Dantalian






    Kurzbeschreibung:
    Zitat Zitat von AniSearch.com
    Nach dem Tod seines Großvaters erbt Hugh Anthony Disward dessen altes Anwesen samt seiner Bibliothek. Im Keller des Hauses trifft er auf ein mysteriöses Mädchen mit dem Namen Dalian. Sie ist ein Dantalian und ein Portal zu "Dantalians Bibliotheca", in der verbotene Bücher der Dämonen zu finden sind. Diese verbotenen "Gensho" bedrohen das Gleichgewicht der Welt, doch werden die Leute durch dieses Tabu angezogen. Hugh und Dalian lösen nun gemeinsam die Fälle, indem sie sich das Wissens und die Möglichkeiten der Dantalians Bibliotheca aneignen.


    Spieldauer: 24min
    Genre: Krimi
    Nebengenres: Action, Drama, Krimi, Mystery, Männlich, Weiblich
    Jahr: 2011
    Sprache: Japanisch
    Untertitel: Deutsch
    Größe pro Folge: ~263 MiB
    Episodenanzahl: 12/12
    Format: MP4
    Auflösung: 720p (16:9)
    Videocodec: x264 (AVC)
    Audiocodec: AAC
    Releasegruppe: Morai-Subs
    Hoster: Share-Online, Uploaded


    MediaInfo
    Code:
    
    Format                                   : MPEG-4
    Format profile                           : Base Media
    Codec ID                                 : isom
    File size                                : 263 MiB
    Duration                                 : 24mn 45s
    Overall bit rate mode                    : Variable
    Overall bit rate                         : 1 484 Kbps
    Encoded date                             : UTC 2011-08-19 05:15:13
    Tagged date                              : UTC 2011-08-19 05:15:13
    
    Video
    ID                                       : 1
    Format                                   : AVC
    Format/Info                              : Advanced Video Codec
    Format profile                           : [email protected]
    Format settings, CABAC                   : Yes
    Format settings, ReFrames                : 4 frames
    Codec ID                                 : avc1
    Codec ID/Info                            : Advanced Video Coding
    Duration                                 : 24mn 45s
    Bit rate                                 : 1 396 Kbps
    Maximum bit rate                         : 11.6 Mbps
    Width                                    : 1 280 pixels
    Height                                   : 720 pixels
    Display aspect ratio                     : 16:9
    Frame rate mode                          : Constant
    Frame rate                               : 23.976 fps
    Color space                              : YUV
    Chroma subsampling                       : 4:2:0
    Bit depth                                : 8 bits
    Scan type                                : Progressive
    Bits/(Pixel*Frame)                       : 0.063
    Stream size                              : 247 MiB (94%)
    Title                                    : Video
    Writing library                          : x264 core 105 r1724 b02df7b
    Encoding settings                        : cabac=1 / ref=3 / deblock=1:1:1 / analyse=0x3:0x133 / me=umh / subme=10 / psy=1 / psy_rd=0.40:0.00 / mixed_ref=1 / me_range=24 / chroma_me=1 / trellis=2 / 8x8dct=1 / cqm=0 / deadzone=21,11 / fast_pskip=1 / chroma_qp_offset=-2 / threads=9 / sliced_threads=0 / nr=0 / decimate=1 / interlaced=0 / constrained_intra=0 / bframes=3 / b_pyramid=2 / b_adapt=2 / b_bias=0 / direct=3 / weightb=1 / open_gop=0 / weightp=2 / keyint=250 / keyint_min=23 / scenecut=40 / intra_refresh=0 / rc_lookahead=60 / rc=crf / mbtree=1 / crf=19.0 / qcomp=0.60 / qpmin=10 / qpmax=51 / qpstep=4 / vbv_maxrate=25000 / vbv_bufsize=25000 / crf_max=0.0 / ip_ratio=1.40 / aq=1:0.60 / nal_hrd=none
    Encoded date                             : UTC 2011-08-19 05:15:13
    Tagged date                              : UTC 2011-08-19 05:15:20
    
    Audio
    ID                                       : 2
    Format                                   : AAC
    Format/Info                              : Advanced Audio Codec
    Format profile                           : HE-AAC / LC
    Codec ID                                 : 40
    Duration                                 : 24mn 45s
    Bit rate mode                            : Variable
    Bit rate                                 : 85.0 Kbps
    Maximum bit rate                         : 122 Kbps
    Channel(s)                               : 2 channels
    Channel positions                        : Front: L R
    Sampling rate                            : 48.0 KHz / 24.0 KHz
    Compression mode                         : Lossy
    Stream size                              : 15.1 MiB (6%)
    Language                                 : Japanese
    Encoded date                             : UTC 2011-08-19 05:15:19
    Tagged date                              : UTC 2011-08-19 05:15:20
    
    





    Geschützter Bereich - Bedanke dich beim Poster, um den Bereich sehen zu können
    Hier erfährst Du wie Du Dich bedanken kannst oder werde jetzt Premium Mitglied ab einer Spende von 5€ und erhalte sofortigen Zugriff auf den Downloadbereich!



    [Links sind nur für registrierte und aktivierte Nutzer sichtbar. Klicke hier um dich zu registrieren.]
    Geändert von so1k (12. October 2016 um 20:35 Uhr)
    !!!Alle Anliegen bezüglich Uploads werden nur mit direktem Threadlink zum Angebot bearbeitet!!!

    Re-Uploadanfragen nur per PN - Ihr könnt mir auch Listen schicken

    Re-Uploads erfolgen meist innerhalb 24h, kann aber auch bis zu 7 Tage dauern

    [Links sind nur für registrierte und aktivierte Nutzer sichtbar. Klicke hier um dich zu registrieren.] | [Links sind nur für registrierte und aktivierte Nutzer sichtbar. Klicke hier um dich zu registrieren.] | >[Links sind nur für registrierte und aktivierte Nutzer sichtbar. Klicke hier um dich zu registrieren.]<
    [Links sind nur für registrierte und aktivierte Nutzer sichtbar. Klicke hier um dich zu registrieren.]

  2. 10 Benutzer sagen Danke:

    Akio (22. April 2016),Alodas (29. April 2016),eraz (10. January 2016),GiftGasBaer (22. February 2016),midnighter (20. January 2016),Miriweth (20. March 2016),nickssystem (9. January 2016),nitsuj1001 (17. February 2016),redithebat (29. May 2016),Soranix06 (27. February 2016)

Lesezeichen

Berechtigungen

  • Neue Themen erstellen: Nein
  • Themen beantworten: Nein
  • Anhänge hochladen: Nein
  • Beiträge bearbeiten: Nein
  •  

1 2 3 4 5 6 7 8 9 10 11 12 13 14 15 16 17 18 19 20 21 22 23 24 25 26 27 28 29 30 31 32 33 34 35 36 37 38 39 40 41 42 43 44 45 46 47 48 49 50 51 52 53 54 55 56 57 58 59 60 61 62 63 64 65 66 67 68 69 70 71 72 73 74 75 76 77 78 79 80 81 82 83 84 85 86 87 88 89 90 91 92 93 94 95 96 97 98 99 100 101 102 103 104 105 106 107 108 109 110 111 112 113 114 115 116 117 118 119 120 121 122 123 124 125 126 127 128 129 130 131 132 133 134 135 136 137 138 139 140 141 142 143 144 145 146 147 148 149 150 151 152 153 154 155 156 157 158