Ergebnis 1 bis 1 von 1

Thema: Death Note: Rewrite 2 - L wo Tsugu Mono [Jap-Dub][Ger-Sub][480p][DVDRip] - AKA

Dieser Thread wurde noch nicht bewertet. Bewerte ihn doch, wenn er dir gefällt!
  1. #1
    Kami-sama Avatar von galudo
    Registriert seit
    Mar 2015
    Beiträge
    1.371
    Punkte
    26.002
    Errungenschaften:
    TomodachisTagger ProfiHyperaktivSenpaiGang Leader

    Death Note: Rewrite 2 - L wo Tsugu Mono [Jap-Dub][Ger-Sub][480p][DVDRip] - AKA

    Death Note: Rewrite 2 - L wo Tsugu Mono
    Death Note リライト2 Lを継ぐ者
    Death Note: R2 - L wo Tsugu Mono
    Death Note: Relight 2 - L’s Successors



    Kurzbeschreibung
    Dieser Movie ist eine Zusammenfassung des zweiten Teils der gleichnamigen Serie. Während der Vorgängerfilm "Death Note Rewrite: The Visualizing God" die ersten 25 Folgen nacherzählt, befasst sich "Death Note: Rewrite 2 - L's Successors" mit den restlichen 12 Folgen und bietet einige neue Szenen.
    Format: MP4 und MKV
    Sprache: Japanisch
    Untertitel: Deutsch
    Genre: Fantasy, Psychothriller, Shounen
    Größe: ~ 1320 MB
    Dauer: ~ 94 Minuten
    Jahr: 2008
    Video: 480p
    Source: DVD
    Subgroup / Releasegroup: Akatsuki-Subs

    Hoster: Share-Online | Uploaded
    Passwort: siehe unten
    Onlinestatus: MKV|MP4


    Datei-Info
    MediaInfo
    MKV-Version
    Code:
    General
    Unique ID                      : 175055906096217832225881249620677786377 (0x83B28A88C1EEC210AABA413706D67B09)
    Complete name                  : [AKA] Death Note Rewrite 02 [x264,480p][3FAA0177].mkv
    Format                         : Matroska
    Format version                 : Version 2
    File size                      : 1.33 GiB
    Duration                       : 1h 33mn
    Overall bit rate               : 2 040 Kbps
    Encoded date                   : UTC 2011-08-01 18:07:29
    Writing application            : mkvmerge v4.9.1 ('Ich will') gebaut am Jul 11 2011 23:53:15
    Writing library                : libebml v1.2.1 + libmatroska v1.1.1
    
    Video
    ID                             : 1
    Format                         : AVC
    Format/Info                    : Advanced Video Codec
    Format profile                 : [email protected]
    Format settings, CABAC         : Yes
    Format settings, ReFrames      : 4 frames
    Codec ID                       : V_MPEG4/ISO/AVC
    Duration                       : 1h 33mn
    Nominal bit rate               : 1 846 Kbps
    Width                          : 864 pixels
    Height                         : 480 pixels
    Display aspect ratio           : 16:9
    Frame rate mode                : Constant
    Frame rate                     : 23.976 fps
    Color space                    : YUV
    Chroma subsampling             : 4:2:0
    Bit depth                      : 8 bits
    Scan type                      : Progressive
    Bits/(Pixel*Frame)             : 0.186
    Writing library                : x264 core 116 r2037 f8ebd4a
    Encoding settings              : cabac=1 / ref=3 / deblock=1:1:1 / analyse=0x3:0x113 / me=umh / subme=7 / psy=1 / psy_rd=0.60:0.00 / mixed_ref=1 / me_range=16 / chroma_me=1 / trellis=1 / 8x8dct=1 / cqm=0 / deadzone=21,11 / fast_pskip=1 / chroma_qp_offset=-2 / threads=6 / sliced_threads=0 / nr=0 / decimate=1 / interlaced=0 / bluray_compat=0 / constrained_intra=0 / bframes=3 / b_pyramid=2 / b_adapt=1 / b_bias=0 / direct=1 / weightb=1 / open_gop=0 / weightp=2 / keyint=250 / keyint_min=23 / scenecut=40 / intra_refresh=0 / rc_lookahead=40 / rc=2pass / mbtree=1 / bitrate=1846 / ratetol=1.0 / qcomp=0.60 / qpmin=10 / qpmax=51 / qpstep=4 / cplxblur=20.0 / qblur=0.5 / vbv_maxrate=24000 / vbv_bufsize=24000 / nal_hrd=none / ip_ratio=1.40 / aq=1:1.00
    Default                        : Yes
    Forced                         : No
    
    Audio
    ID                             : 2
    Format                         : AAC
    Format/Info                    : Advanced Audio Codec
    Format profile                 : LC
    Codec ID                       : A_AAC
    Duration                       : 1h 33mn
    Channel(s)                     : 2 channels
    Channel positions              : Front: L R
    Sampling rate                  : 48.0 KHz
    Compression mode               : Lossy
    Language                       : Japanese
    Default                        : Yes
    Forced                         : No
    MP4-Version
    Code:
    General
    Complete name                  : [AKA] Death Note Rewrite 02 [x264,480p][A946432F].mp4
    Format                         : MPEG-4
    Format profile                 : Base Media
    Codec ID                       : isom
    File size                      : 1.33 GiB
    Duration                       : 1h 33mn
    Overall bit rate mode          : Variable
    Overall bit rate               : 2 042 Kbps
    Encoded date                   : UTC 2011-08-01 13:42:43
    Tagged date                    : UTC 2011-08-01 13:42:43
    
    Video
    ID                             : 1
    Format                         : AVC
    Format/Info                    : Advanced Video Codec
    Format profile                 : [email protected]
    Format settings, CABAC         : Yes
    Format settings, ReFrames      : 4 frames
    Codec ID                       : avc1
    Codec ID/Info                  : Advanced Video Coding
    Duration                       : 1h 33mn
    Bit rate                       : 1 846 Kbps
    Maximum bit rate               : 11.7 Mbps
    Width                          : 864 pixels
    Height                         : 480 pixels
    Display aspect ratio           : 16:9
    Frame rate mode                : Constant
    Frame rate                     : 23.976 fps
    Color space                    : YUV
    Chroma subsampling             : 4:2:0
    Bit depth                      : 8 bits
    Scan type                      : Progressive
    Bits/(Pixel*Frame)             : 0.186
    Stream size                    : 1.20 GiB (90%)
    Writing library                : x264 core 116 r2037 f8ebd4a
    Encoding settings              : cabac=1 / ref=3 / deblock=1:1:1 / analyse=0x3:0x113 / me=umh / subme=7 / psy=1 / psy_rd=0.60:0.00 / mixed_ref=1 / me_range=16 / chroma_me=1 / trellis=1 / 8x8dct=1 / cqm=0 / deadzone=21,11 / fast_pskip=1 / chroma_qp_offset=-2 / threads=6 / sliced_threads=0 / nr=0 / decimate=1 / interlaced=0 / bluray_compat=0 / constrained_intra=0 / bframes=3 / b_pyramid=2 / b_adapt=1 / b_bias=0 / direct=1 / weightb=1 / open_gop=0 / weightp=2 / keyint=250 / keyint_min=23 / scenecut=40 / intra_refresh=0 / rc_lookahead=40 / rc=2pass / mbtree=1 / bitrate=1846 / ratetol=1.0 / qcomp=0.60 / qpmin=10 / qpmax=51 / qpstep=4 / cplxblur=20.0 / qblur=0.5 / vbv_maxrate=24000 / vbv_bufsize=24000 / nal_hrd=none / ip_ratio=1.40 / aq=1:1.00
    Encoded date                   : UTC 2011-08-01 12:59:55
    Tagged date                    : UTC 2011-08-01 13:43:32
    
    Audio
    ID                             : 2
    Format                         : AAC
    Format/Info                    : Advanced Audio Codec
    Format profile                 : LC
    Codec ID                       : 40
    Duration                       : 1h 33mn
    Bit rate mode                  : Variable
    Bit rate                       : 192 Kbps
    Maximum bit rate               : 200 Kbps
    Channel(s)                     : 2 channels
    Channel positions              : Front: L R
    Sampling rate                  : 48.0 KHz
    Compression mode               : Lossy
    Stream size                    : 128 MiB (9%)
    Language                       : Japanese
    Encoded date                   : UTC 2011-08-01 13:43:21
    Tagged date                    : UTC 2011-08-01 13:43:32


    2 Parts

    || Download & Passwort ||


    Geschützter Bereich - Bedanke dich beim Poster, um den Bereich sehen zu können
    Hier erfährst Du wie Du Dich bedanken kannst oder werde jetzt Premium Mitglied ab einer Spende von 5€ und erhalte sofortigen Zugriff auf den Downloadbereich!

    Erste Teil von Death Note Rewrite:
    [Links sind nur für registrierte und aktivierte Nutzer sichtbar. Klicke hier um dich zu registrieren.]
    Geändert von galudo (12. October 2016 um 18:21 Uhr)
    SUPPORT UND REUP ANFRAGEN NUR >> [Links sind nur für registrierte und aktivierte Nutzer sichtbar. Klicke hier um dich zu registrieren.] <<
    Bitte IMMER den Thread-Link mitschicken.

  2. 6 Benutzer sagen Danke:

    chopper23 (6. April 2016),Hiro (7. April 2016),Missingno (23. May 2016),re.tischi (6. April 2016),Regi (1. August 2016),syman8989 (6. July 2016)

Stichworte

Lesezeichen

Berechtigungen

  • Neue Themen erstellen: Nein
  • Themen beantworten: Nein
  • Anhänge hochladen: Nein
  • Beiträge bearbeiten: Nein
  •  

1 2 3 4 5 6 7 8 9 10 11 12 13 14 15 16 17 18 19 20 21 22 23 24 25 26 27 28 29 30 31 32 33 34 35 36 37 38 39 40 41 42 43 44 45 46 47 48 49 50 51 52 53 54 55 56 57 58 59 60 61 62 63 64 65 66 67 68 69 70 71 72 73 74 75 76 77 78 79 80 81 82 83 84 85 86 87 88 89 90 91 92 93 94 95 96 97 98 99 100 101 102 103 104 105 106 107 108 109 110 111 112 113 114 115 116 117 118 119 120 121 122 123 124 125 126 127 128 129 130 131 132 133 134 135 136 137 138 139 140 141 142 143 144 145 146 147 148 149 150 151 152 153 154 155 156 157 158