Ergebnis 1 bis 1 von 1

Thema: Death Note: Rewrite - Genshi Suru Kami [Jap-Dub][Ger-Sub][480p][DVDRip] - AKA

Dieser Thread wurde noch nicht bewertet. Bewerte ihn doch, wenn er dir gefällt!
  1. #1
    Kami-sama Avatar von galudo
    Registriert seit
    Mar 2015
    Beiträge
    1.370
    Punkte
    25.957
    Errungenschaften:
    TomodachisTagger ProfiHyperaktivSenpaiGang Leader

    Death Note: Rewrite - Genshi Suru Kami [Jap-Dub][Ger-Sub][480p][DVDRip] - AKA

    Death Note: Rewrite - Genshi Suru Kami
    Death Note リライト ~幻視する神~
    Death Note: Relight - Visions of a God



    Kurzbeschreibung
    "Death Note Rewrite: The Visualizing God" ist eine stark gekürzte Zusammenfassung der gleichnamigen Serie. Neben dem ersten Teil der Serienstory gibt es hier einige kleine Änderungen wie z.B. das Aufeinandertreffen der beiden Kontrahenten L und Light.
    Format: MP4 und MKV
    Sprache: Japanisch
    Untertitel: Deutsch
    Genre: Fantasy, Psychothriller, Shounen
    Größe: ~ 1240 MB
    Dauer: ~ 130 Minuten
    Jahr: 2007
    Video: 480p
    Source: DVD
    Subgroup / Releasegroup: Akatsuki-Subs

    Hoster: Share-Online | Uploaded
    Passwort: siehe unten
    Onlinestatus: MKV|MP4


    Datei-Info
    MediaInfo
    MKV-Version
    Code:
    General
    Unique ID                      : 193850403464364812264750887298412098666 (0x91D63ACC11D8D7EFB1E4D333EED4B46A)
    Complete name                  : [AKA] Death Note Rewrite 01 [x264,480p][2B0FEA07].mkv
    Format                         : Matroska
    Format version                 : Version 2
    File size                      : 1.24 GiB
    Duration                       : 2h 10mn
    Overall bit rate               : 1 365 Kbps
    Encoded date                   : UTC 2010-08-06 19:57:32
    Writing application            : mkvmerge v4.0.0 ('The Stars were mine') gebaut am Jun  6 2010 16:18:42
    Writing library                : libebml v1.0.0 + libmatroska v1.0.0
    
    Video
    ID                             : 1
    Format                         : AVC
    Format/Info                    : Advanced Video Codec
    Format profile                 : [email protected]
    Format settings, CABAC         : Yes
    Format settings, ReFrames      : 4 frames
    Codec ID                       : V_MPEG4/ISO/AVC
    Duration                       : 2h 10mn
    Nominal bit rate               : 1 200 Kbps
    Width                          : 864 pixels
    Height                         : 480 pixels
    Display aspect ratio           : 16:9
    Frame rate mode                : Constant
    Frame rate                     : 23.976 fps
    Color space                    : YUV
    Chroma subsampling             : 4:2:0
    Bit depth                      : 8 bits
    Scan type                      : Progressive
    Bits/(Pixel*Frame)             : 0.121
    Writing library                : x264 core 104 r1677 19df41a
    Encoding settings              : cabac=1 / ref=3 / deblock=1:0:0 / analyse=0x3:0x113 / me=hex / subme=7 / psy=1 / psy_rd=1.00:0.00 / mixed_ref=1 / me_range=16 / chroma_me=1 / trellis=1 / 8x8dct=1 / cqm=0 / deadzone=21,11 / fast_pskip=1 / chroma_qp_offset=-2 / threads=6 / sliced_threads=0 / nr=0 / decimate=1 / interlaced=0 / constrained_intra=0 / bframes=3 / b_pyramid=2 / b_adapt=1 / b_bias=0 / direct=1 / weightb=1 / open_gop=0 / weightp=2 / keyint=250 / keyint_min=23 / scenecut=40 / intra_refresh=0 / rc_lookahead=40 / rc=2pass / mbtree=1 / bitrate=1200 / ratetol=1.0 / qcomp=0.60 / qpmin=10 / qpmax=51 / qpstep=4 / cplxblur=20.0 / qblur=0.5 / vbv_maxrate=24000 / vbv_bufsize=24000 / ip_ratio=1.40 / aq=1:1.00 / nal_hrd=none
    Language                       : Japanese
    Default                        : No
    Forced                         : No
    
    Audio
    ID                             : 2
    Format                         : AAC
    Format/Info                    : Advanced Audio Codec
    Format profile                 : LC
    Codec ID                       : A_AAC
    Duration                       : 2h 10mn
    Channel(s)                     : 2 channels
    Channel positions              : Front: L R
    Sampling rate                  : 48.0 KHz
    Compression mode               : Lossy
    Language                       : Japanese
    Default                        : Yes
    Forced                         : No
    MP4-Version
    Code:
    General
    Complete name                  : [AKA] Death Note Rewrite 01 [x264,480p][E368D769].mp4
    Format                         : MPEG-4
    Format profile                 : Base Media
    Codec ID                       : isom
    File size                      : 1.24 GiB
    Duration                       : 2h 10mn
    Overall bit rate mode          : Variable
    Overall bit rate               : 1 366 Kbps
    Encoded date                   : UTC 2010-08-05 20:15:24
    Tagged date                    : UTC 2010-08-05 20:15:24
    Writing application            : Yamb 2.1.0.0 [http://yamb.unite-video.com]
    
    Video
    ID                             : 1
    Format                         : AVC
    Format/Info                    : Advanced Video Codec
    Format profile                 : [email protected]
    Format settings, CABAC         : Yes
    Format settings, ReFrames      : 4 frames
    Codec ID                       : avc1
    Codec ID/Info                  : Advanced Video Coding
    Duration                       : 2h 10mn
    Bit rate                       : 1 200 Kbps
    Maximum bit rate               : 10.4 Mbps
    Width                          : 864 pixels
    Height                         : 480 pixels
    Display aspect ratio           : 16:9
    Frame rate mode                : Constant
    Frame rate                     : 23.976 fps
    Color space                    : YUV
    Chroma subsampling             : 4:2:0
    Bit depth                      : 8 bits
    Scan type                      : Progressive
    Bits/(Pixel*Frame)             : 0.121
    Stream size                    : 1.09 GiB (88%)
    Title                          : Imported with GPAC 0.4.6-DEV (internal rev. 5)
    Writing library                : x264 core 104 r1677 19df41a
    Encoding settings              : cabac=1 / ref=3 / deblock=1:0:0 / analyse=0x3:0x113 / me=hex / subme=7 / psy=1 / psy_rd=1.00:0.00 / mixed_ref=1 / me_range=16 / chroma_me=1 / trellis=1 / 8x8dct=1 / cqm=0 / deadzone=21,11 / fast_pskip=1 / chroma_qp_offset=-2 / threads=6 / sliced_threads=0 / nr=0 / decimate=1 / interlaced=0 / constrained_intra=0 / bframes=3 / b_pyramid=2 / b_adapt=1 / b_bias=0 / direct=1 / weightb=1 / open_gop=0 / weightp=2 / keyint=250 / keyint_min=23 / scenecut=40 / intra_refresh=0 / rc_lookahead=40 / rc=2pass / mbtree=1 / bitrate=1200 / ratetol=1.0 / qcomp=0.60 / qpmin=10 / qpmax=51 / qpstep=4 / cplxblur=20.0 / qblur=0.5 / vbv_maxrate=24000 / vbv_bufsize=24000 / ip_ratio=1.40 / aq=1:1.00 / nal_hrd=none
    Language                       : Japanese
    Encoded date                   : UTC 2010-08-05 20:15:24
    Tagged date                    : UTC 2010-08-05 20:18:56
    
    Audio
    ID                             : 2
    Format                         : AAC
    Format/Info                    : Advanced Audio Codec
    Format profile                 : LC
    Codec ID                       : 40
    Duration                       : 2h 10mn
    Bit rate mode                  : Variable
    Bit rate                       : 162 Kbps
    Maximum bit rate               : 239 Kbps
    Channel(s)                     : 2 channels
    Channel positions              : Front: L R
    Sampling rate                  : 48.0 KHz
    Compression mode               : Lossy
    Stream size                    : 151 MiB (12%)
    Title                          : Imported with GPAC 0.4.6-DEV (internal rev. 5)
    Language                       : Japanese
    Encoded date                   : UTC 2010-08-05 20:18:53
    Tagged date                    : UTC 2010-08-05 20:18:56


    2 Parts

    || Download & Passwort ||


    Geschützter Bereich - Bedanke dich beim Poster, um den Bereich sehen zu können
    Hier erfährst Du wie Du Dich bedanken kannst oder werde jetzt Premium Mitglied ab einer Spende von 5€ und erhalte sofortigen Zugriff auf den Downloadbereich!

    Zweite Teil von Death Note Rewrite:
    [Links sind nur für registrierte und aktivierte Nutzer sichtbar. Klicke hier um dich zu registrieren.]
    Geändert von galudo (12. October 2016 um 18:22 Uhr)
    SUPPORT UND REUP ANFRAGEN NUR >> [Links sind nur für registrierte und aktivierte Nutzer sichtbar. Klicke hier um dich zu registrieren.] <<
    Bitte IMMER den Thread-Link mitschicken.

  2. 8 Benutzer sagen Danke:

    chopper23 (6. April 2016),eraz (6. April 2016),Hiro (7. April 2016),manninator (18. August 2016),Missingno (23. May 2016),re.tischi (6. April 2016),Regi (1. August 2016),syman8989 (6. July 2016)

Stichworte

Lesezeichen

Berechtigungen

  • Neue Themen erstellen: Nein
  • Themen beantworten: Nein
  • Anhänge hochladen: Nein
  • Beiträge bearbeiten: Nein
  •  

1 2 3 4 5 6 7 8 9 10 11 12 13 14 15 16 17 18 19 20 21 22 23 24 25 26 27 28 29 30 31 32 33 34 35 36 37 38 39 40 41 42 43 44 45 46 47 48 49 50 51 52 53 54 55 56 57 58 59 60 61 62 63 64 65 66 67 68 69 70 71 72 73 74 75 76 77 78 79 80 81 82 83 84 85 86 87 88 89 90 91 92 93 94 95 96 97 98 99 100 101 102 103 104 105 106 107 108 109 110 111 112 113 114 115 116 117 118 119 120 121 122 123 124 125 126 127 128 129 130 131 132 133 134 135 136 137 138 139 140 141 142 143 144 145 146 147 148 149 150 151 152 153 154 155 156 157 158