Ergebnis 1 bis 1 von 1

Thema: Denshin Mamotte Shugogetten! [Jap-Dub] [Ger-Sub] [DVDRip]

Dieser Thread wurde noch nicht bewertet. Bewerte ihn doch, wenn er dir gefällt!
  1. #1
    United we Stand Avatar von 00Ryuji00
    Registriert seit
    Oct 2012
    Beiträge
    3.902
    Punkte
    100.019
    Errungenschaften:
    TomodachisGang LeaderHikikomoriTagger Amateur50000 Erfahrungspunkte

    Denshin Mamotte Shugogetten! [Jap-Dub] [Ger-Sub] [DVDRip]

    Denshin Mamotte Shugogetten!
    伝心まもって守護月天!
    Protect Me, Heavenly Moon Guardian! OVA
    Mamotte Shugogetten OVA






    Kurzbeschreibung:
    Die OVA führt die Geschichte von Mamotte Shugogetten fort und zeigt noch mal acht weitere, lose zusammenhängende Episoden rund um Tasuke und seine beiden übernatürlichen Mitbewohnerinnen. Doch zwei sind anscheinend nicht genug und so zieht am Anfang der OVA gleich eine weitere "Göttin" mit ins Haus, obwohl die beiden anderen Tasuke eigentlich schon genug Schwierigkeiten bereiten.


    Sprache: Japanisch
    Untertitel: Deutsch
    Größe: ~260 BM pro FOlge
    Episodenanzahl: 8/8
    Format: .mp4
    Auflösung: 480p (640x480, 4:3)
    Codec: x264
    Gruppe: NaSu
    Hoster: Share-Online ; Uploaded


    Datei Info:
    Spoiler

    Code:
    
    
    Format                                   : MPEG-4
    Format profile                           : Base Media / Version 2
    Codec ID                                 : mp42
    File size                                : 266 MiB
    Duration                                 : 30mn 10s
    Overall bit rate mode                    : Variable
    Overall bit rate                         : 1 230 Kbps
    Encoded date                             : UTC 2010-09-29 19:08:30
    Tagged date                              : UTC 2010-09-29 19:08:30
    
    Video
    ID                                       : 1
    Format                                   : AVC
    Format/Info                              : Advanced Video Codec
    Format profile                           : [email protected]
    Format settings, CABAC                   : No
    Format settings, ReFrames                : 2 frames
    Format settings, GOP                     : M=1, N=30
    Codec ID                                 : avc1
    Codec ID/Info                            : Advanced Video Coding
    Duration                                 : 30mn 8s
    Source duration                          : 30mn 9s
    Source_Duration_LastFrame                : -1s 250ms
    Bit rate                                 : 1 101 Kbps
    Width                                    : 640 pixels
    Height                                   : 480 pixels
    Display aspect ratio                     : 4:3
    Frame rate mode                          : Constant
    Frame rate                               : 24.000 fps
    Standard                                 : PAL
    Color space                              : YUV
    Chroma subsampling                       : 4:2:0
    Bit depth                                : 8 bits
    Scan type                                : Progressive
    Bits/(Pixel*Frame)                       : 0.149
    Stream size                              : 237 MiB (89%)
    Source stream size                       : 237 MiB (89%)
    Language                                 : English
    Encoded date                             : UTC 2010-09-29 19:08:30
    Tagged date                              : UTC 2010-09-29 19:08:30
    Color primaries                          : BT.601 PAL
    Transfer characteristics                 : BT.470 System B, BT.470 System G
    Matrix coefficients                      : BT.601
    mdhd_Duration                            : 1808440
    
    Audio
    ID                                       : 2
    Format                                   : AAC
    Format/Info                              : Advanced Audio Codec
    Format profile                           : LC
    Codec ID                                 : 40
    Duration                                 : 30mn 10s
    Bit rate mode                            : Variable
    Bit rate                                 : 128 Kbps
    Maximum bit rate                         : 341 Kbps
    Channel count                            : 2 channels
    Channel positions                        : Front: L R
    Sampling rate                            : 48.0 KHz
    Compression mode                         : Lossy
    Stream size                              : 27.6 MiB (10%)
    Language                                 : English
    Encoded date                             : UTC 2010-09-29 19:08:30
    Tagged date                              : UTC 2010-09-29 19:08:30
    
    






    Geschützter Bereich - Bedanke dich beim Poster, um den Bereich sehen zu können
    Hier erfährst Du wie Du Dich bedanken kannst oder werde jetzt Premium Mitglied ab einer Spende von 5€ und erhalte sofortigen Zugriff auf den Downloadbereich!

    !!!Alle Anliegen bezüglich Uploads werden nur mit direktem Threadlink zum Angebot bearbeitet!!!

    Re-Uploadanfragen nur per PN - Ihr könnt mir auch Listen schicken

    Re-Uploads erfolgen meist innerhalb 24h, kann aber auch bis zu 7 Tage dauern

    [Links sind nur für registrierte und aktivierte Nutzer sichtbar. Klicke hier um dich zu registrieren.] | [Links sind nur für registrierte und aktivierte Nutzer sichtbar. Klicke hier um dich zu registrieren.] | >[Links sind nur für registrierte und aktivierte Nutzer sichtbar. Klicke hier um dich zu registrieren.]<
    [Links sind nur für registrierte und aktivierte Nutzer sichtbar. Klicke hier um dich zu registrieren.]

  2. 7 Benutzer sagen Danke:

    Akio (11. November 2015),Angel86 (17. May 2015),Bloodywaffe (23. December 2015),krausi22 (17. October 2015),midnighter (19. May 2015),prinzvegeta (31. August 2015),Tzi (18. May 2015)

Lesezeichen

Berechtigungen

  • Neue Themen erstellen: Nein
  • Themen beantworten: Nein
  • Anhänge hochladen: Nein
  • Beiträge bearbeiten: Nein
  •  

1 2 3 4 5 6 7 8 9 10 11 12 13 14 15 16 17 18 19 20 21 22 23 24 25 26 27 28 29 30 31 32 33 34 35 36 37 38 39 40 41 42 43 44 45 46 47 48 49 50 51 52 53 54 55 56 57 58 59 60 61 62 63 64 65 66 67 68 69 70 71 72 73 74 75 76 77 78 79 80 81 82 83 84 85 86 87 88 89 90 91 92 93 94 95 96 97 98 99 100 101 102 103 104 105 106 107 108 109 110 111 112 113 114 115 116 117 118 119 120 121 122 123 124 125 126 127 128 129 130 131 132 133 134 135 136 137 138 139 140 141 142 143 144 145 146 147 148 149 150 151 152 153 154 155 156 157 158