Ergebnis 1 bis 6 von 6

Thema: Dog Days'' [Jap-Dub][Ger-Sub][720p][HDTV] - C-Subs & Morai

Dieser Thread wurde noch nicht bewertet. Bewerte ihn doch, wenn er dir gefällt!
  1. #1
    Uploader Avatar von Filbo11
    Registriert seit
    Jan 2015
    Beiträge
    931
    Punkte
    17.281
    Errungenschaften:
    TomodachisErste Gruppe1 Jahr registriertCreated Album picturesTagger First Class

    Dog Days'' [Jap-Dub][Ger-Sub][720p][HDTV] - C-Subs & Morai




    Handlung

    Die dritte Staffel von Dog Days spielt zwei bis drei Monate nach den Ereignissen der zweiten Staffel. Die Herbstferien beginnen und die drei Helden kehren wieder einmal zurück nach Fronyald. Doch die Helden geraten auf Abwege und verirren sich im Wald, wo sie auf ein mysteriöses, kleines Mädchen namens Sharu treffen. Ist sie Freund oder Feind?


    Format: MP4
    Dauer: ca. 24 min pro EP
    Größe: ca. 670 mb pro EP
    Sprache: Japanisch
    Untertitel: Deutsch
    Group: C-Subs & Morai
    Hoster: Uploaded.net & Share-Online.biz
    kein PW

    12/12 EP Online

    Screenshots & Info

    Spoiler
    [Links sind nur für registrierte und aktivierte Nutzer sichtbar. Klicke hier um dich zu registrieren.]
    Code:
    Format                                   : MPEG-4
    Format profile                           : Base Media
    Codec ID                                 : isom
    File size                                : 674 MiB
    Duration                                 : 23mn 40s
    Overall bit rate mode                    : Variable
    Overall bit rate                         : 3 981 Kbps
    Encoded date                             : UTC 2015-01-15 02:25:11
    Tagged date                              : UTC 2015-01-15 02:25:11
    
    Video
    ID                                       : 1
    Format                                   : AVC
    Format/Info                              : Advanced Video Codec
    Format profile                           : [email protected]
    Format settings, CABAC                   : Yes
    Format settings, ReFrames                : 3 frames
    Codec ID                                 : avc1
    Codec ID/Info                            : Advanced Video Coding
    Duration                                 : 23mn 40s
    Bit rate mode                            : Variable
    Bit rate                                 : 3 786 Kbps
    Maximum bit rate                         : 40.0 Mbps
    Width                                    : 1 280 pixels
    Height                                   : 720 pixels
    Display aspect ratio                     : 16:9
    Frame rate mode                          : Constant
    Frame rate                               : 23.976 fps
    Color space                              : YUV
    Chroma subsampling                       : 4:2:0
    Bit depth                                : 8 bits
    Scan type                                : Progressive
    Bits/(Pixel*Frame)                       : 0.171
    Stream size                              : 641 MiB (95%)
    Writing library                          : x264 core 142 r2431 ac76440
    Encoding settings                        : cabac=1 / ref=4 / deblock=1:0:0 / analyse=0x3:0x133 / me=umh / subme=10 / psy=1 / psy_rd=1.00:0.00 / mixed_ref=1 / me_range=24 / chroma_me=1 / trellis=2 / 8x8dct=1 / cqm=0 / deadzone=21,11 / fast_pskip=1 / chroma_qp_offset=-2 / threads=12 / lookahead_threads=1 / sliced_threads=0 / slices=4 / nr=0 / decimate=1 / interlaced=0 / bluray_compat=0 / constrained_intra=0 / bframes=3 / b_pyramid=1 / b_adapt=2 / b_bias=0 / direct=3 / weightb=1 / open_gop=0 / weightp=0 / keyint=23 / keyint_min=1 / scenecut=40 / intra_refresh=0 / rc_lookahead=23 / rc=crf / mbtree=1 / crf=19.0 / qcomp=0.60 / qpmin=10 / qpmax=51 / qpstep=4 / vbv_maxrate=40000 / vbv_bufsize=30000 / crf_max=0.0 / nal_hrd=vbr / filler=0 / ip_ratio=1.40 / aq=1:1.00
    Encoded date                             : UTC 2015-01-15 02:02:44
    Tagged date                              : UTC 2015-01-15 02:25:13
    
    Audio
    ID                                       : 2
    Format                                   : AAC
    Format/Info                              : Advanced Audio Codec
    Format profile                           : LC
    Codec ID                                 : 40
    Duration                                 : 23mn 40s
    Bit rate mode                            : Variable
    Bit rate                                 : 192 Kbps
    Maximum bit rate                         : 226 Kbps
    Channel(s)                               : 2 channels
    Channel positions                        : Front: L R
    Sampling rate                            : 44.1 KHz
    Compression mode                         : Lossy
    Stream size                              : 32.5 MiB (5%)
    Encoded date                             : UTC 2015-01-11 01:29:24
    Tagged date                              : UTC 2015-01-15 02:25:13






    Download
    Geschützter Bereich - Bedanke dich beim Poster, um den Bereich sehen zu können
    Hier erfährst Du wie Du Dich bedanken kannst oder werde jetzt Premium Mitglied ab einer Spende von 5€ und erhalte sofortigen Zugriff auf den Downloadbereich!



    Geändert von Filbo11 (12. April 2016 um 10:19 Uhr) Grund: folge 10,11,12 hinzugefügt

    [Links sind nur für registrierte und aktivierte Nutzer sichtbar. Klicke hier um dich zu registrieren.]

    Ich wäre allen sehr dankbar, die mir gravierende Fehler in meinen Releases per PN melden

  2. 35 Benutzer sagen Danke:

    AKira_Hidaka (24. February 2015),Angelous (1. May 2015),Antipott (18. February 2016),AssaXx (9. February 2015),B3nnoX (7. February 2015),BANDIMO (16. September 2015),Cooky1988 (15. November 2016),Dalurin (29. December 2015),enfii (7. February 2015),eraz (14. August 2015),FantasticZ (23. April 2015),Geisterhaendler (27. December 2015),Herion (25. August 2015),Inowan (24. February 2016),Ippi93 (12. February 2016),iPwnage (4. May 2015),janik2009 (22. November 2016),Kuddel (12. February 2016),Kuruse (27. December 2015),KVI512 (16. February 2015),Lamperouge (4. April 2015),Miles360 (15. April 2015),Pedi (31. December 2015),rekiznuh1 (5. November 2016),Ronae (7. February 2015),Sephi66 (19. April 2015),Silent467 (1. September 2015),Sirenetix (20. February 2016),SnowCat (9. February 2015),SONNYxq (15. April 2015),Stones (19. October 2015),Sylux (16. January 2016),Tekk (15. April 2015),Valetinese (21. April 2015),Vastolord (25. April 2015)

  3. #2
    Uploader Avatar von Filbo11
    Registriert seit
    Jan 2015
    Beiträge
    931
    Punkte
    17.281
    Errungenschaften:
    TomodachisErste Gruppe1 Jahr registriertCreated Album picturesTagger First Class

    AW: Dog Days'' 2015 JapDub GerSub AAC 720p TV x264 - C-Subs & Morai

    EP 5 Online

    [Links sind nur für registrierte und aktivierte Nutzer sichtbar. Klicke hier um dich zu registrieren.]

    Ich wäre allen sehr dankbar, die mir gravierende Fehler in meinen Releases per PN melden

  4. 2 Benutzer sagen Danke:

    eraz (14. August 2015),SnowCat (18. February 2015)

  5. #3
    Uploader Avatar von Filbo11
    Registriert seit
    Jan 2015
    Beiträge
    931
    Punkte
    17.281
    Errungenschaften:
    TomodachisErste Gruppe1 Jahr registriertCreated Album picturesTagger First Class

    AW: Dog Days'' 2015 JapDub GerSub AAC 720p TV x264 - C-Subs & Morai

    folge 6 & 7 online

    komplett neue link`s

    [Links sind nur für registrierte und aktivierte Nutzer sichtbar. Klicke hier um dich zu registrieren.]

    Ich wäre allen sehr dankbar, die mir gravierende Fehler in meinen Releases per PN melden

  6. 1 Benutzer sagt Danke:

    SnowCat (17. April 2015)

  7. #4
    Uploader Avatar von Filbo11
    Registriert seit
    Jan 2015
    Beiträge
    931
    Punkte
    17.281
    Errungenschaften:
    TomodachisErste Gruppe1 Jahr registriertCreated Album picturesTagger First Class

    AW: Dog Days'' 2015 JapDub GerSub AAC 720p HDTV x264 - C-Subs & Morai

    folge 8 online

    [Links sind nur für registrierte und aktivierte Nutzer sichtbar. Klicke hier um dich zu registrieren.]

    Ich wäre allen sehr dankbar, die mir gravierende Fehler in meinen Releases per PN melden

  8. 1 Benutzer sagt Danke:

    SnowCat (17. April 2015)

  9. #5
    Uploader Avatar von Filbo11
    Registriert seit
    Jan 2015
    Beiträge
    931
    Punkte
    17.281
    Errungenschaften:
    TomodachisErste Gruppe1 Jahr registriertCreated Album picturesTagger First Class

    AW: Dog Days'' 2015 JapDub GerSub AAC 720p HDTV x264 - C-Subs & Morai

    folge 9 online

    [Links sind nur für registrierte und aktivierte Nutzer sichtbar. Klicke hier um dich zu registrieren.]

    Ich wäre allen sehr dankbar, die mir gravierende Fehler in meinen Releases per PN melden

  10. 1 Benutzer sagt Danke:

    SnowCat (17. April 2015)

  11. #6
    Uploader Avatar von Filbo11
    Registriert seit
    Jan 2015
    Beiträge
    931
    Punkte
    17.281
    Errungenschaften:
    TomodachisErste Gruppe1 Jahr registriertCreated Album picturesTagger First Class

    AW: Dog Days'' 2015 JapDub GerSub AAC 720p HDTV x264 - C-Subs & Morai

    folge 10, 11 & 12 online und somit komplett

    [Links sind nur für registrierte und aktivierte Nutzer sichtbar. Klicke hier um dich zu registrieren.]

    Ich wäre allen sehr dankbar, die mir gravierende Fehler in meinen Releases per PN melden

  12. 1 Benutzer sagt Danke:

    SnowCat (20. April 2015)

Lesezeichen

Berechtigungen

  • Neue Themen erstellen: Nein
  • Themen beantworten: Nein
  • Anhänge hochladen: Nein
  • Beiträge bearbeiten: Nein
  •  

1 2 3 4 5 6 7 8 9 10 11 12 13 14 15 16 17 18 19 20 21 22 23 24 25 26 27 28 29 30 31 32 33 34 35 36 37 38 39 40 41 42 43 44 45 46 47 48 49 50 51 52 53 54 55 56 57 58 59 60 61 62 63 64 65 66 67 68 69 70 71 72 73 74 75 76 77 78 79 80 81 82 83 84 85 86 87 88 89 90 91 92 93 94 95 96 97 98 99 100 101 102 103 104 105 106 107 108 109 110 111 112 113 114 115 116 117 118 119 120 121 122 123 124 125 126 127 128 129 130 131 132 133 134 135 136 137 138 139 140 141 142 143 144 145 146 147 148 149 150 151 152 153 154 155 156 157 158