Ergebnis 1 bis 1 von 1

Thema: Endride [Jap-Dub][Ger-Sub][720p][HDTV] - Pure-Anime

Dieser Thread wurde noch nicht bewertet. Bewerte ihn doch, wenn er dir gefällt!
  1. #1
    Kami-sama Avatar von galudo
    Registriert seit
    Mar 2015
    Beiträge
    1.371
    Punkte
    26.002
    Errungenschaften:
    TomodachisTagger ProfiHyperaktivSenpaiGang Leader

    Endride [Jap-Dub][Ger-Sub][720p][HDTV] - Pure-Anime

    Endride
    エンドライド




    Kurzbeschreibung:
    Zitat Zitat von AniSearch.com
    Emilio Langheim*und*Shun Asanaga könnten nicht unterschiedlicher sein, denn sie sind beide in verschiedenen Welten groß geworden.*Shun*ist ein 15-jähriger Oberschüler, der sehr optimistisch und freundlich eingestellt ist, während*Emilio gerade 16 geworden ist und nur eins im Kopf hat: Rache an dem amtierenden König Delzain.*
    Eines Tages entdeckt*Shun*einen mysteriösen Kristall in dem Büro seines Vaters und findet sich daraufhin in dem Königreich*Endra wieder.*Emilio sitzt zu dem Zeitpunkt im Gefängnis, da er versucht hat, den König zu töten und so seine gewünschte Rache zu nehmen. Plötzlich taucht Shun vor ihm auf*mit zwei Möglichkeiten: Zurückkehren in seine eigene Welt oder die Rache mit*Emilio vollziehen. Für was wird sich Shun entscheiden?
    Spieldauer: 23min
    Genre: Abenteuer
    Nebengenres: Abenteuer, Fantasy
    Jahr: 2016
    Sprache: Japanisch
    Untertitel: Deutsch(HardSub)
    Größe pro Folge: ~206 MiB
    Source: HDTV
    Format: MP4
    Auflösung: 720p (16:9)
    Videocodec: x264 (AVC)
    Audiocodec: AAC
    Subgruppe / Releasegruppe: Pure-Anime

    Hoster: Share-Online | Uploaded
    Passwort: siehe unten


    MediaInfo
    Code:
    
    Format                                   : MPEG-4
    Format profile                           : Base Media
    Codec ID                                 : isom
    File size                                : 206 MiB
    Duration                                 : 23mn 0s
    Overall bit rate mode                    : Variable
    Overall bit rate                         : 1 251 Kbps
    Encoded date                             : UTC 2016-04-06 16:46:43
    Tagged date                              : UTC 2016-04-06 16:46:43
    
    Video
    ID                                       : 1
    Format                                   : AVC
    Format/Info                              : Advanced Video Codec
    Format profile                           : [email protected]
    Format settings, CABAC                   : Yes
    Format settings, ReFrames                : 4 frames
    Codec ID                                 : avc1
    Codec ID/Info                            : Advanced Video Coding
    Duration                                 : 23mn 0s
    Bit rate                                 : 1 081 Kbps
    Maximum bit rate                         : 7 367 Kbps
    Width                                    : 1 280 pixels
    Height                                   : 720 pixels
    Display aspect ratio                     : 16:9
    Frame rate mode                          : Constant
    Frame rate                               : 23.976 fps
    Color space                              : YUV
    Chroma subsampling                       : 4:2:0
    Bit depth                                : 8 bits
    Scan type                                : Progressive
    Bits/(Pixel*Frame)                       : 0.049
    Stream size                              : 178 MiB (86%)
    Writing library                          : x264 core 148 r2638 7599210
    Encoding settings                        : cabac=1 / ref=3 / deblock=1:0:0 / analyse=0x3:0x113 / me=hex / subme=7 / psy=1 / psy_rd=1.00:0.00 / mixed_ref=1 / me_range=16 / chroma_me=1 / trellis=1 / 8x8dct=1 / cqm=0 / deadzone=21,11 / fast_pskip=1 / chroma_qp_offset=-2 / threads=12 / lookahead_threads=2 / sliced_threads=0 / nr=0 / decimate=1 / interlaced=0 / bluray_compat=0 / constrained_intra=0 / bframes=3 / b_pyramid=2 / b_adapt=1 / b_bias=0 / direct=1 / weightb=1 / open_gop=0 / weightp=2 / keyint=240 / keyint_min=23 / scenecut=40 / intra_refresh=0 / rc_lookahead=40 / rc=2pass / mbtree=1 / bitrate=1081 / ratetol=1.0 / qcomp=0.60 / qpmin=0 / qpmax=69 / qpstep=4 / cplxblur=20.0 / qblur=0.5 / ip_ratio=1.40 / aq=1:1.00
    Encoded date                             : UTC 2016-04-06 16:46:43
    Tagged date                              : UTC 2016-04-06 16:46:45
    
    Audio
    ID                                       : 2
    Format                                   : AAC
    Format/Info                              : Advanced Audio Codec
    Format profile                           : LC
    Codec ID                                 : 40
    Duration                                 : 23mn 0s
    Bit rate mode                            : Variable
    Bit rate                                 : 167 Kbps
    Maximum bit rate                         : 197 Kbps
    Channel(s)                               : 2 channels
    Channel positions                        : Front: L R
    Sampling rate                            : 48.0 KHz
    Compression mode                         : Lossy
    Stream size                              : 27.4 MiB (13%)
    Encoded date                             : UTC 2016-04-06 16:35:57
    Tagged date                              : UTC 2016-04-06 16:46:45
    
    


    Folgen 24/24 online
    Folgen einzeln ladbar



    || Download & Passwort ||


    Geschützter Bereich - Bedanke dich beim Poster, um den Bereich sehen zu können
    Hier erfährst Du wie Du Dich bedanken kannst oder werde jetzt Premium Mitglied ab einer Spende von 5€ und erhalte sofortigen Zugriff auf den Downloadbereich!
    SUPPORT UND REUP ANFRAGEN NUR >> [Links sind nur für registrierte und aktivierte Nutzer sichtbar. Klicke hier um dich zu registrieren.] <<
    Bitte IMMER den Thread-Link mitschicken.

  2. 11 Benutzer sagen Danke:

    Besen 48 (11. November 2016),Deusira (19. October 2016),imnuan (10. October 2016),IshiFuroito (18. October 2016),kanita (22. November 2016),Kradus (2. November 2016),LawrenceKraft (12. October 2016),Meistermagier (16. October 2016),Roxas-chan (21. October 2016),Sora (8. October 2016),thegroudge (16. October 2016)

Lesezeichen

Berechtigungen

  • Neue Themen erstellen: Nein
  • Themen beantworten: Nein
  • Anhänge hochladen: Nein
  • Beiträge bearbeiten: Nein
  •  

1 2 3 4 5 6 7 8 9 10 11 12 13 14 15 16 17 18 19 20 21 22 23 24 25 26 27 28 29 30 31 32 33 34 35 36 37 38 39 40 41 42 43 44 45 46 47 48 49 50 51 52 53 54 55 56 57 58 59 60 61 62 63 64 65 66 67 68 69 70 71 72 73 74 75 76 77 78 79 80 81 82 83 84 85 86 87 88 89 90 91 92 93 94 95 96 97 98 99 100 101 102 103 104 105 106 107 108 109 110 111 112 113 114 115 116 117 118 119 120 121 122 123 124 125 126 127 128 129 130 131 132 133 134 135 136 137 138 139 140 141 142 143 144 145 146 147 148 149 150 151 152 153 154 155 156 157 158