Ergebnis 1 bis 2 von 2

Thema: Fairy Tail (2014) [Jap-Dub][Ger-Sub][720p-10Bit][HDTV]-BNFs

Dieser Thread wurde noch nicht bewertet. Bewerte ihn doch, wenn er dir gefällt!
  1. #1
    Freigeschalteter Otaku
    Registriert seit
    Feb 2014
    Beiträge
    29
    Punkte
    3.662
    Errungenschaften:
    1000 ErfahrungspunkteHikikomori

    Fairy Tail (2014) [Jap-Dub][Ger-Sub][720p-10Bit][HDTV]-BNFs



    Viele spannende Abenteuer liegen hinter den Mitgliedern von Fairy Tail. Doch das kommende soll alles in den Schatten stellen. Um Zeref und seine magischen Dämonenbücher ein für alle mal loszuwerden, versucht eine Gruppe von Menschen mit Lucys magischen Stellarfähigkeiten das Tor "Eclipse" zu öffnen, um die Vergangenheit zu verändern. Damit soll Zeref nie die Möglichkeit bekommen, die magischen Dämonenbücher zu kontrollieren.
    Währenddessen finden Natsu, Wendy und Gajeel endlich heraus, was am 07.07.777 mit all den Drachen geschah, woher sie die Dragon-Slayer-Magie bekamen und welche Rolle Acnologia in der Geschichte rund um das "Festival of the Dragon King" spielt.

    Genre: Fighting-Shounen
    Status: Abgeschlossen
    Episoden: 102/102
    Spieldauer: 24 Min. pro Folge
    Sprache: Japanisch
    Untertitel: Deutsch
    Subgruppe: BlueNova

    Format: mp4
    Breite: 1280 Pixel
    Höhe: 720 Pixel
    Bit depth: 8/10 bits
    Video-Codec: x264
    Grösse: ~ 400MB pro Folge
    Audio-Codec: AAC


    MediaInfo
    Spoiler
    8Bit Version
    Spoiler
    Code:
    Video
    ID                                       : 1
    Format                                   : AVC
    Format/Info                              : Advanced Video Codec
    Format profile                           : [email protected]
    Format settings, CABAC                   : Yes
    Format settings, ReFrames                : 9 frames
    Codec ID                                 : avc1
    Codec ID/Info                            : Advanced Video Coding
    Duration                                 : 24mn 24s
    Bit rate                                 : 2 582 Kbps
    Maximum bit rate                         : 15.1 Mbps
    Width                                    : 1 280 pixels
    Height                                   : 720 pixels
    Display aspect ratio                     : 16:9
    Frame rate mode                          : Constant
    Frame rate                               : 23.976 fps
    Color space                              : YUV
    Chroma subsampling                       : 4:2:0
    Bit depth                                : 8 bits
    Scan type                                : Progressive
    Bits/(Pixel*Frame)                       : 0.117
    Stream size                              : 451 MiB (95%)
    Writing library                          : x264 core 125 r2200+677M 3a754e7
    Encoding settings                        : cabac=1 / ref=9 / deblock=1:0:0 / analyse=0x3:0x133 / me=umh / subme=10 / psy=1 / fade_compensate=0.00 / psy_rd=1.00:0.00 / mixed_ref=1 / me_range=24 / chroma_me=1 / trellis=2 / 8x8dct=1 / cqm=0 / deadzone=21,11 / fast_pskip=0 / chroma_qp_offset=-2 / threads=6 / lookahead_threads=1 / sliced_threads=0 / nr=0 / decimate=0 / interlaced=0 / bluray_compat=0 / constrained_intra=0 / fgo=0 / bframes=16 / b_pyramid=2 / b_adapt=2 / b_bias=0 / direct=3 / weightb=1 / open_gop=0 / weightp=2 / keyint=250 / keyint_min=23 / scenecut=40 / intra_refresh=0 / rc_lookahead=60 / rc=crf / mbtree=1 / crf=16.0000 / qcomp=0.60 / qpmin=0 / qpmax=69 / qpstep=4 / vbv_maxrate=31250 / vbv_bufsize=31250 / crf_max=0.0 / nal_hrd=none / ip_ratio=1.40 / aq=1:1.00
    Encoded date                             : UTC 2014-04-07 15:08:20
    Tagged date                              : UTC 2014-04-07 15:08:44
    
    Audio
    ID                                       : 2
    Format                                   : AAC
    Format/Info                              : Advanced Audio Codec
    Format profile                           : LC
    Codec ID                                 : 40
    Duration                                 : 24mn 24s
    Bit rate mode                            : Variable
    Bit rate                                 : 128 Kbps
    Maximum bit rate                         : 139 Kbps
    Channel(s)                               : 2 channels
    Channel positions                        : Front: L R
    Sampling rate                            : 44.1 KHz
    Compression mode                         : Lossy
    Stream size                              : 22.3 MiB (5%)
    Encoded date                             : UTC 2014-04-07 15:08:42
    Tagged date                              : UTC 2014-04-07 15:08:44
    10Bit Version
    Spoiler
    Code:
    Video
    ID                                       : 1
    Format                                   : AVC
    Format/Info                              : Advanced Video Codec
    Format profile                           : High [email protected]
    Format settings, CABAC                   : Yes
    Format settings, ReFrames                : 16 frames
    Codec ID                                 : avc1
    Codec ID/Info                            : Advanced Video Coding
    Duration                                 : 24mn 24s
    Bit rate                                 : 2 356 Kbps
    Maximum bit rate                         : 15.1 Mbps
    Width                                    : 1 280 pixels
    Height                                   : 720 pixels
    Display aspect ratio                     : 16:9
    Frame rate mode                          : Constant
    Frame rate                               : 23.976 fps
    Color space                              : YUV
    Chroma subsampling                       : 4:2:0
    Bit depth                                : 10 bits
    Scan type                                : Progressive
    Bits/(Pixel*Frame)                       : 0.107
    Stream size                              : 411 MiB (95%)
    Writing library                          : x264 core 125 r2200+677M 3a754e7
    Encoding settings                        : cabac=1 / ref=16 / deblock=1:0:0 / analyse=0x3:0x133 / me=umh / subme=10 / psy=1 / fade_compensate=0.00 / psy_rd=1.00:0.00 / mixed_ref=1 / me_range=24 / chroma_me=1 / trellis=2 / 8x8dct=1 / cqm=0 / deadzone=21,11 / fast_pskip=0 / chroma_qp_offset=-2 / threads=6 / lookahead_threads=1 / sliced_threads=0 / nr=0 / decimate=0 / interlaced=0 / bluray_compat=0 / constrained_intra=0 / fgo=0 / bframes=16 / b_pyramid=2 / b_adapt=2 / b_bias=0 / direct=3 / weightb=1 / open_gop=0 / weightp=2 / keyint=250 / keyint_min=23 / scenecut=40 / intra_refresh=0 / rc_lookahead=60 / rc=crf / mbtree=1 / crf=16.0000 / qcomp=0.60 / qpmin=0 / qpmax=81 / qpstep=4 / ip_ratio=1.40 / aq=1:1.00
    Encoded date                             : UTC 2014-04-07 15:07:28
    Tagged date                              : UTC 2014-04-07 15:07:50
    
    Audio
    ID                                       : 2
    Format                                   : AAC
    Format/Info                              : Advanced Audio Codec
    Format profile                           : LC
    Codec ID                                 : 40
    Duration                                 : 24mn 24s
    Bit rate mode                            : Variable
    Bit rate                                 : 128 Kbps
    Maximum bit rate                         : 139 Kbps
    Channel(s)                               : 2 channels
    Channel positions                        : Front: L R
    Sampling rate                            : 44.1 KHz
    Compression mode                         : Lossy
    Stream size                              : 22.3 MiB (5%)
    Encoded date                             : UTC 2014-04-07 15:07:48
    Tagged date                              : UTC 2014-04-07 15:07:50



    Fairy Tail Zero sind die Folgen 91-100
    Jede Folge einzeln ladbar



    Download

    Geschützter Bereich - Bedanke dich beim Poster, um den Bereich sehen zu können
    Hier erfährst Du wie Du Dich bedanken kannst oder werde jetzt Premium Mitglied ab einer Spende von 5€ und erhalte sofortigen Zugriff auf den Downloadbereich!





    FAQ
    Spoiler

    Einige Folgen sind Down was soll ich tun?
    Schreib mir einfach eine PN damit möglichst bald ein reupp verfügbar ist.

    Was ist der Unterschied zwischen 8Bit und 10Bit?
    Grob gesagt hat die 10Bit Version ein etwas besseres Bild und ist
    etwas kleiner. 10Bit lässt sich allerdings noch nicht mit allen Geräten abspielen.

    Wann kommt die nächste Folge Fairy Tail raus?
    Fairy Tail S2 ist mit Folge 102 Leider vorerst vorbei. Weitere Infos findet ihr [Links sind nur für registrierte und aktivierte Nutzer sichtbar. Klicke hier um dich zu registrieren.]

    Hilfe!! Ich finde das Kennwort nicht!!
    Ja das ist richtig so, denn es gibt kein Kennwort.

    Geändert von Kuchiwa (6. April 2016 um 23:15 Uhr)

  2. 118 Benutzer sagen Danke:

    Anzeigen

    フェアリーテイル (28. August 2014),Akumu_inactive (23. December 2014),andy6 (12. November 2015),ani212 (3. July 2014),Antipott (15. April 2016),Araragisan (15. August 2016),arginator (29. July 2015),Asuka Langley (10. April 2016),Auizi (7. April 2016),auron1000 (20. November 2015),Bloodrevenge (7. January 2015),Blubyblub (24. October 2015),bumer12 (9. September 2014),Buntbaer4_inactive (21. March 2015),C3M-O- (28. September 2014),Ch1quita (22. December 2014),Charger17 (25. July 2015),Cranel (5. January 2016),CrazyFighter_inactive (14. December 2014),crocker92 (3. January 2015),cyberbadghost (8. April 2016),dante-hellsing (29. October 2016),DEF (19. August 2014),Delthy_inactive (2. November 2014),DJPAUL1990 (2. September 2014),DomStrike (14. April 2016),dragon84_inactive (20. August 2014),dreimer (19. February 2016),Dylan (16. March 2016),entryx (24. June 2014),Eragon (20. August 2014),fl0wstylzzz_inactive (9. April 2015),foxasult (25. January 2016),Furorian (25. August 2014),GagaManamanga (5. October 2016),Goki.Grokus (16. September 2014),Haduken (11. September 2014),hammer03 (17. August 2014),herrntod (23. July 2014),HerzogZepar (17. November 2015),Hithilion (13. October 2014),insaine (16. April 2016),IshiFuroito (14. April 2016),jolker89 (5. May 2015),JugoBetrugo (24. October 2015),Julz (4. July 2014),Jumpbase (20. January 2015),KaizerBeelzebub (5. November 2014),Kenny328 (28. January 2016),Kita_Kitsune (17. October 2014),Kitefist (3. September 2014),Kojomi (10. May 2016),KrachbumAlex (14. December 2015),Kupan (23. November 2015),Lamperouge (7. December 2014),Lautrerbomber (9. July 2015),Lowbuget_inactive (9. November 2014),mar3el (3. April 2016),mclaurier (7. April 2016),Meatron (5. May 2015),mic.spirit (28. September 2014),midnighter (20. September 2014),Miku_Ushita (23. November 2016),mik_y (23. May 2016),Miriweth (2. January 2016),Missingno (2. November 2016),Moltisanti (1. November 2016),Natzu (11. October 2014),natzu0 (20. August 2014),Naya (17. April 2015),neocx (25. July 2014),Nerobix (14. July 2014),Nesal (20. March 2016),Pantsuu (8. October 2014),Proki (3. July 2014),Ran-Mori (8. July 2014),re.tischi (7. April 2016),ReGGiZz (31. March 2015),rinnegan93 (22. November 2016),robbryjo (8. April 2016),Roysento (3. September 2014),Schattenmagier (24. January 2016),Schinki (3. August 2014),Schweigi (31. October 2015),scrabbler_inactive (15. September 2014),Se.phi.roth (2. February 2015),Sense (5. August 2014),SerienStream (20. August 2014),SertiX (6. December 2015),Sexmann (20. December 2015),Shintaro (11. July 2015),Simon Jack (22. January 2016),Skygearz (1. December 2014),SnowCat (5. July 2014),Steinauge (18. April 2015),Suigetsu (6. April 2016),Synxx3 (31. January 2015),TaigaAisaka (18. April 2015),Tevion32 (23. January 2016),TheBloodyace (1. December 2014),thedarkone777 (10. January 2016),The_Iron (15. November 2015),Tquilarius (26. September 2016),Valetinese (30. August 2014),videoseven (26. September 2014),vulvenblod (11. February 2016),Wildy (18. August 2014),Wölfchen (7. April 2016),xercs (3. August 2014),Xeros94_inactive (2. May 2015),Xerx3s (7. April 2016),Xoon (2. December 2016),xRei (15. November 2014),YamiXGhost (10. November 2014),Yaranaika (22. September 2014),Yukichan018 (22. June 2016),ZeDeRom (26. November 2016),zockerfreund (14. April 2016)

  3. #2
    Freigeschalteter Otaku
    Registriert seit
    Feb 2014
    Beiträge
    29
    Punkte
    3.662
    Errungenschaften:
    1000 ErfahrungspunkteHikikomori

    AW: Fairy Tail (2014) [Jap-Dub][Ger-Sub][720p-10Bit][HDTV]-BNFs

    Fairy Tail 102 hinzugefügt.

    "Das ist vorläufig allerdings die letzte Folge Fairy Tail S2. Es gibt in diesem Zusammenhang, was das Studio nun mit dem Anime von Fairy Tail vorhat, keine offizielle Mitteilung."

  4. 1 Benutzer sagt Danke:

    SuicidalInsanity (1. July 2016)

Lesezeichen

Berechtigungen

  • Neue Themen erstellen: Nein
  • Themen beantworten: Nein
  • Anhänge hochladen: Nein
  • Beiträge bearbeiten: Nein
  •  

1 2 3 4 5 6 7 8 9 10 11 12 13 14 15 16 17 18 19 20 21 22 23 24 25 26 27 28 29 30 31 32 33 34 35 36 37 38 39 40 41 42 43 44 45 46 47 48 49 50 51 52 53 54 55 56 57 58 59 60 61 62 63 64 65 66 67 68 69 70 71 72 73 74 75 76 77 78 79 80 81 82 83 84 85 86 87 88 89 90 91 92 93 94 95 96 97 98 99 100 101 102 103 104 105 106 107 108 109 110 111 112 113 114 115 116 117 118 119 120 121 122 123 124 125 126 127 128 129 130 131 132 133 134 135 136 137 138 139 140 141 142 143 144 145 146 147 148 149 150 151 152 153 154 155 156 157 158